Поиск

(Free Improvisation, Avant-Garde) Nels Cline & Elliott Sharp - Open the Door - 2012, FLAC (tracks+.cue), lossless

(Free Improvisation, Avant-Garde) Nels Cline & Elliott Sharp - Open the Door - 2012, FLAC (tracks+.cue), lossless
Треклист:
Nels Cline & Elliott Sharp / Open the Door
Жанр: Free Improvisation, Avant-Garde
Страна-производитель диска: US
Год издания: 2012
Издатель (лейбл): Public Eyesore
Номер по каталогу: PE121
Страна: US
Аудиокодек: FLAC (*.flac)
Тип рипа: tracks+.cue
Битрейт аудио: lossless
Продолжительность: 55:14
Источник (релизер): собственный CD
Наличие сканов в содержимом раздачи: нет
Треклист:
1. Blue Particles
2. Five Tastes Of Sour
3. Isotropes
4. Let Her In
5. Pietraviva
 
Лог создания рипа
Exact Audio Copy V1.0 beta 3 from 29. August 2011
EAC extraction logfile from 22. December 2012, 16:52
Nels Cline & Elliott Sharp / Open the Door
Used drive : HL-DT-STDVDRAM GH41N Adapter: 3 ID: 0
Read mode : Secure
Utilize accurate stream : Yes
Defeat audio cache : Yes
Make use of C2 pointers : No
Read offset correction : 667
Overread into Lead-In and Lead-Out : No
Fill up missing offset samples with silence : Yes
Delete leading and trailing silent blocks : No
Null samples used in CRC calculations : Yes
Used interface : Native Win32 interface for Win NT & 2000
Gap handling : Appended to previous track
Used output format : User Defined Encoder
Selected bitrate : 768 kBit/s
Quality : High
Add ID3 tag : No
Command line compressor : C:\Program Files\Exact Audio Copy\Flac\flac.exe
Additional command line options : -V -8 -T "artist=%artist%" -T "title=%title%" -T "album=%albumtitle%" -T "date=%year%" -T "tracknumber=%tracknr%" -T "genre=%genre%" %source%
TOC of the extracted CD
Track | Start | Length | Start sector | End sector
---------------------------------------------------------
1 | 0:00.00 | 5:50.40 | 0 | 26289
2 | 5:50.40 | 9:43.04 | 26290 | 70018
3 | 15:33.44 | 13:37.24 | 70019 | 131317
4 | 29:10.68 | 16:14.14 | 131318 | 204381
5 | 45:25.07 | 9:49.50 | 204382 | 248606
Track 1
Filename C:\Nels Cline & Elliott Sharp - Open the Door (2012) [FLAC] {Public Eyesore PE121}\01 Blue Particles.wav
Pre-gap length 0:00:02.00
Peak level 98.8 %
Extraction speed 1.2 X
Track quality 100.0 %
Test CRC 0F0860A2
Copy CRC 0F0860A2
Track not present in AccurateRip database
Copy OK
Track 2
Filename C:\Nels Cline & Elliott Sharp - Open the Door (2012) [FLAC] {Public Eyesore PE121}\02 Five Tastes of Sour.wav
Pre-gap length 0:00:02.00
Peak level 98.8 %
Extraction speed 1.5 X
Track quality 100.0 %
Test CRC 706F2FA7
Copy CRC 706F2FA7
Track not present in AccurateRip database
Copy OK
Track 3
Filename C:\Nels Cline & Elliott Sharp - Open the Door (2012) [FLAC] {Public Eyesore PE121}\03 Isotropes.wav
Pre-gap length 0:00:02.00
Peak level 98.8 %
Extraction speed 1.9 X
Track quality 100.0 %
Test CRC F0433223
Copy CRC F0433223
Track not present in AccurateRip database
Copy OK
Track 4
Filename C:\Nels Cline & Elliott Sharp - Open the Door (2012) [FLAC] {Public Eyesore PE121}\04 Let Her In.wav
Pre-gap length 0:00:02.00
Peak level 98.8 %
Extraction speed 2.2 X
Track quality 100.0 %
Test CRC E4860697
Copy CRC E4860697
Track not present in AccurateRip database
Copy OK
Track 5
Filename C:\Nels Cline & Elliott Sharp - Open the Door (2012) [FLAC] {Public Eyesore PE121}\05 Pietraviva.wav
Pre-gap length 0:00:05.00
Peak level 77.6 %
Extraction speed 2.3 X
Track quality 99.9 %
Test CRC 19B207D8
Copy CRC 19B207D8
Track not present in AccurateRip database
Copy OK
None of the tracks are present in the AccurateRip database
No errors occurred
End of status report
---- CUETools DB Plugin V2.1.3
[CTDB TOCID: H80OZP8PNwp9Va071TjgDWWqNko-] disk not present in database, Submit result: H80OZP8PNwp9Va071TjgDWWqNko- has been uploaded
==== Log checksum 5996BEAA1A71E0E24DE7FB5886186A1CBC9895BA7A64B613C18DE5E12E68F07E ====
 
Содержание индексной карты (.CUE)
REM GENRE Jazz
REM DATE 2012
REM DISCID 3E0CF205
REM COMMENT "ExactAudioCopy v1.0b3"
FILE "01 Blue Particles.wav" WAVE
TRACK 01 AUDIO
FLAGS DCP
INDEX 01 00:00:00
TRACK 02 AUDIO
FLAGS DCP
INDEX 00 05:48:40
FILE "02 Five Tastes of Sour.wav" WAVE
INDEX 01 00:00:00
TRACK 03 AUDIO
FLAGS DCP
INDEX 00 09:41:04
FILE "03 Isotropes.wav" WAVE
INDEX 01 00:00:00
TRACK 04 AUDIO
FLAGS DCP
INDEX 00 13:35:24
FILE "04 Let Her In.wav" WAVE
INDEX 01 00:00:00
TRACK 05 AUDIO
FLAGS DCP
INDEX 00 16:09:14
FILE "05 Pietraviva.wav" WAVE
INDEX 01 00:00:00
 
Об альбоме (сборнике)
(Monsieur Délire) Studio session recorded in 1999, augmented with a live track from 2007, and this is just out on Public Eyesore. All acoustic guitar duos. Vivid, fast-past, virtuoso exchanges, though the idea is not to wow you with speed. Strong dialogues between two seasoned improvisers, with a nice informal feel. - François Couture
(Aiding & Abetting) The two guitarists are back for another swing through experimental improvisational fare. The playing is accomplished and innovative; both men are so versatile that these songs incorporate almost too many sounds to mention. If you thought that improvisational music was only about noodling around to no particular end, this album ought to set your straight. Incendiary. - Jon Worley
 
Состав
Nels Cline - acoustic guitar
Elliott Sharp - acoustic guitar
По всем вопросам пишите личное сообщение пользователю M0p94ok.
06:47
180
Нет комментариев. Ваш будет первым!