Вы используете незарегистрированную версию компонента "Вкладки"!

Поиск

(Avant-Garde Jazz / Free Improvisation) Joe McPhee and Michael Zerang - Creole Gardens (A New Orleans Suite) - 2011, FLAC (tracks+.cue), lossless

(Avant-Garde Jazz / Free Improvisation) Joe McPhee and Michael Zerang - Creole Gardens (A New Orleans Suite) - 2011, FLAC (tracks+.cue), lossless
Треклист:
Joe McPhee and Michael Zerang - Creole Gardens (A New Orleans Suite)
Жанр: Avant-Garde Jazz / Free Improvisation
Страна-производитель диска: Lithuania
Год издания: 2011
Издатель (лейбл): NoBusiness Records
Номер по каталогу: NBCD 32
Аудиокодек: FLAC (*.flac)
Тип рипа: tracks+.cue
Битрейт аудио: lossless
Продолжительность: 00:59:57
Источник (релизер): what.cd / спасибо 6060842
Наличие сканов в содержимом раздачи: нет
Треклист:
1. Congo Square Dances / Saints and Sinners (23:53)
2. Rise / After the Flood (09:15)
3. Crescent City Lullaby (08:43)
4. And Now Miss Annie, The Black Queen (07:11)
5. The Drummer - Who-Sits On-The-Drum (10:54)
All compositions by Joe McPhee and Michael Zerang
Доп. информация:
Musicians:
JOE McPHEE - alto saxophone, pocket trumpet
MICHAEL ZERANG - drums
Recorded 24th September, 2009 by Carl R. Moller, live at BIG TOP - New Orleans, LA, USA
JOE McPHEE and MICHAEL ZERANG - Creole Gardens (A New Orleans Suite) nobusinessrecords.com
JOE McPHEE Official Site
JOE McPHEE from Wikipedia, the free encyclopedia
MICHAEL ZERANG Official Site
MICHAEL ZERANG myspace.com
 
... photo ...

 
Лог создания рипа
X Lossless Decoder version 20121222 (142.2)
XLD extraction logfile from 2012-12-24 01:05:44 +0400
Joe McPhee, Michael Zerang / Creole Gardens (A New Orleans Suite)
Used drive : HL-DT-ST DVDRW GX30N (revision RP09)
Media type : Pressed CD
Ripper mode : XLD Secure Ripper
Disable audio cache : OK for the drive with a cache less than 1375KiB
Make use of C2 pointers : NO
Read offset correction : 6
Max retry count : 20
Gap status : Analyzed, Appended
TOC of the extracted CD
Track | Start | Length | Start sector | End sector
---------------------------------------------------------
1 | 00:00:00 | 23:56:01 | 0 | 107700
2 | 23:56:01 | 09:18:24 | 107701 | 149574
3 | 33:14:25 | 08:46:35 | 149575 | 189059
4 | 42:00:60 | 07:14:06 | 189060 | 221615
5 | 49:14:66 | 10:54:13 | 221616 | 270678
AccurateRip Summary
Disc not found in AccurateRip DB.
All Tracks
Album gain : -4.98 dB
Peak : 0.966095
Statistics
Read error : 0
Jitter error (maybe fixed) : 0
Retry sector count : 0
Damaged sector count : 0
Track 01
Filename : /Users/anch/Music/FLAC/Joe McPhee, Michael Zerang - 2011 - Creole Gardens (A New Orleans Suite) [FLAC]/01 - Congo Square Dances / Saints And Sinners.flac
/Users/anch/Music/FLAC/Joe McPhee, Michael Zerang - 2011 - Creole Gardens (A New Orleans Suite) [MP3 320]/01 - Congo Square Dances / Saints And Sinners.mp3
/Users/anch/Music/FLAC/Joe McPhee, Michael Zerang - 2011 - Creole Gardens (A New Orleans Suite) [MP3 V0]/01 - Congo Square Dances / Saints And Sinners.mp3
Pre-gap length : 00:02:00
Track gain : -3.47 dB
Peak : 0.966095
CRC32 hash (test run) : 4B99907E
CRC32 hash : 4B99907E
CRC32 hash (skip zero) : C5E769F8
AccurateRip v1 signature : D24168E8
AccurateRip v2 signature : 342FDC6F
->Track not present in AccurateRip database.
Statistics
Read error : 0
Jitter error (maybe fixed) : 0
Retry sector count : 0
Damaged sector count : 0
Track 02
Filename : /Users/anch/Music/FLAC/Joe McPhee, Michael Zerang - 2011 - Creole Gardens (A New Orleans Suite) [FLAC]/02 - Rise / After The Flood.flac
/Users/anch/Music/FLAC/Joe McPhee, Michael Zerang - 2011 - Creole Gardens (A New Orleans Suite) [MP3 320]/02 - Rise / After The Flood.mp3
/Users/anch/Music/FLAC/Joe McPhee, Michael Zerang - 2011 - Creole Gardens (A New Orleans Suite) [MP3 V0]/02 - Rise / After The Flood.mp3
Pre-gap length : 00:03:00
Track gain : -5.39 dB
Peak : 0.966064
CRC32 hash (test run) : 5A66C92D
CRC32 hash : 5A66C92D
CRC32 hash (skip zero) : 1574D0BA
AccurateRip v1 signature : D33C082E
AccurateRip v2 signature : EE569FA2
->Track not present in AccurateRip database.
Statistics
Read error : 0
Jitter error (maybe fixed) : 0
Retry sector count : 0
Damaged sector count : 0
Track 03
Filename : /Users/anch/Music/FLAC/Joe McPhee, Michael Zerang - 2011 - Creole Gardens (A New Orleans Suite) [FLAC]/03 - Crescent City Lullaby.flac
/Users/anch/Music/FLAC/Joe McPhee, Michael Zerang - 2011 - Creole Gardens (A New Orleans Suite) [MP3 320]/03 - Crescent City Lullaby.mp3
/Users/anch/Music/FLAC/Joe McPhee, Michael Zerang - 2011 - Creole Gardens (A New Orleans Suite) [MP3 V0]/03 - Crescent City Lullaby.mp3
Pre-gap length : 00:03:00
Track gain : -6.47 dB
Peak : 0.966095
CRC32 hash (test run) : 4FA50083
CRC32 hash : 4FA50083
CRC32 hash (skip zero) : 88D24C68
AccurateRip v1 signature : 36B70B59
AccurateRip v2 signature : A0C2AFA3
->Track not present in AccurateRip database.
Statistics
Read error : 0
Jitter error (maybe fixed) : 0
Retry sector count : 0
Damaged sector count : 0
Track 04
Filename : /Users/anch/Music/FLAC/Joe McPhee, Michael Zerang - 2011 - Creole Gardens (A New Orleans Suite) [FLAC]/04 - And Now Miss Annie, The Black Queen.flac
/Users/anch/Music/FLAC/Joe McPhee, Michael Zerang - 2011 - Creole Gardens (A New Orleans Suite) [MP3 320]/04 - And Now Miss Annie, The Black Queen.mp3
/Users/anch/Music/FLAC/Joe McPhee, Michael Zerang - 2011 - Creole Gardens (A New Orleans Suite) [MP3 V0]/04 - And Now Miss Annie, The Black Queen.mp3
Pre-gap length : 00:03:00
Track gain : -5.94 dB
Peak : 0.966095
CRC32 hash (test run) : F623A6C8
CRC32 hash : F623A6C8
CRC32 hash (skip zero) : 546A3AAA
AccurateRip v1 signature : 204A9580
AccurateRip v2 signature : 992C0B7B
->Track not present in AccurateRip database.
Statistics
Read error : 0
Jitter error (maybe fixed) : 0
Retry sector count : 0
Damaged sector count : 0
Track 05
Filename : /Users/anch/Music/FLAC/Joe McPhee, Michael Zerang - 2011 - Creole Gardens (A New Orleans Suite) [FLAC]/05 - The Drummer-Who-Sits On-The-Drum.flac
/Users/anch/Music/FLAC/Joe McPhee, Michael Zerang - 2011 - Creole Gardens (A New Orleans Suite) [MP3 320]/05 - The Drummer-Who-Sits On-The-Drum.mp3
/Users/anch/Music/FLAC/Joe McPhee, Michael Zerang - 2011 - Creole Gardens (A New Orleans Suite) [MP3 V0]/05 - The Drummer-Who-Sits On-The-Drum.mp3
Pre-gap length : 00:03:00
Track gain : -3.67 dB
Peak : 0.966095
CRC32 hash (test run) : 63C818D8
CRC32 hash : 63C818D8
CRC32 hash (skip zero) : F4EC1AAF
AccurateRip v1 signature : 4332FE08
AccurateRip v2 signature : AA5CC0BA
->Track not present in AccurateRip database.
Statistics
Read error : 0
Jitter error (maybe fixed) : 0
Retry sector count : 0
Damaged sector count : 0
No errors occurred
End of status report
 
Содержание индексной карты (.CUE)
TITLE "Creole Gardens (A New Orleans Suite)"
PERFORMER "Joe McPhee, Michael Zerang"
REM GENRE "Free Jazz"
REM DATE "2011"
REM DISCID 4C0E1905
REM REPLAYGAIN_ALBUM_GAIN -4.98 dB
REM REPLAYGAIN_ALBUM_PEAK 0.966095
FILE "01 - Congo Square Dances - Saints And Sinners.flac" WAVE
TRACK 01 AUDIO
TITLE "Congo Square Dances / Saints And Sinners"
PERFORMER "Joe McPhee, Michael Zerang"
SONGWRITER "Joe McPhee, Michael Zerang"
REM REPLAYGAIN_TRACK_GAIN -3.47 dB
REM REPLAYGAIN_TRACK_PEAK 0.966095
INDEX 01 00:00:00
TRACK 02 AUDIO
TITLE "Rise / After The Flood"
PERFORMER "Joe McPhee, Michael Zerang"
SONGWRITER "Joe McPhee, Michael Zerang"
REM REPLAYGAIN_TRACK_GAIN -5.39 dB
REM REPLAYGAIN_TRACK_PEAK 0.966064
INDEX 00 23:53:01
FILE "02 - Rise - After The Flood.flac" WAVE
INDEX 01 00:00:00
TRACK 03 AUDIO
TITLE "Crescent City Lullaby"
PERFORMER "Joe McPhee, Michael Zerang"
SONGWRITER "Joe McPhee, Michael Zerang"
REM REPLAYGAIN_TRACK_GAIN -6.47 dB
REM REPLAYGAIN_TRACK_PEAK 0.966095
INDEX 00 09:15:24
FILE "03 - Crescent City Lullaby.flac" WAVE
INDEX 01 00:00:00
TRACK 04 AUDIO
TITLE "And Now Miss Annie, The Black Queen"
PERFORMER "Joe McPhee, Michael Zerang"
SONGWRITER "Joe McPhee, Michael Zerang"
REM REPLAYGAIN_TRACK_GAIN -5.94 dB
REM REPLAYGAIN_TRACK_PEAK 0.966095
INDEX 00 08:43:35
FILE "04 - And Now Miss Annie, The Black Queen.flac" WAVE
INDEX 01 00:00:00
TRACK 05 AUDIO
TITLE "The Drummer-Who-Sits On-The-Drum"
PERFORMER "Joe McPhee, Michael Zerang"
SONGWRITER "Joe McPhee, Michael Zerang"
REM REPLAYGAIN_TRACK_GAIN -3.67 dB
REM REPLAYGAIN_TRACK_PEAK 0.966095
INDEX 00 07:11:06
FILE "05 - The Drummer-Who-Sits On-The-Drum.flac" WAVE
INDEX 01 00:00:00
 
auCDtect Task Manager
-----------------------
DON'T MODIFY THIS FILE
-----------------------
PERFORMER: auCDtect Task Manager, ver. 1.5.1RC6 build 1.5.1.7
Copyright (c) 2008-2010 y-soft. All rights reserved
http://y-soft.org
ANALYZER: auCDtect: CD records authenticity detector, version 0.8.2
Copyright (c) 2004 Oleg Berngardt. All rights reserved.
Copyright (c) 2004 Alexander Djourik. All rights reserved.
FILE: 05 - The Drummer-Who-Sits On-The-Drum.flac
Size: 62554243 Hash: 230A66441AA3277D2C5C8123A7B1B768 Accuracy: -m0
Conclusion: CDDA 99%
Signature: 23CF0D429C33D1968BA43BBC8F9840AFFED9457E
FILE: 04 - And Now Miss Annie, The Black Queen.flac
Size: 48964898 Hash: C5C8A66077B4827CB5BB6D1F49EB786B Accuracy: -m0
Conclusion: CDDA 100%
Signature: A350FAD27C13549705DAFA5EE971A04881E0014A
FILE: 03 - Crescent City Lullaby.flac
Size: 46559299 Hash: BE320C2423462CEA79D964D02C85433B Accuracy: -m0
Conclusion: CDDA 100%
Signature: 4DE44FAACABBBD42603131890E0A6DA840C8AF36
FILE: 02 - Rise - After The Flood.flac
Size: 49546336 Hash: E35C5D0EB4FA2358B4F5D1362A6F2F99 Accuracy: -m0
Conclusion: CDDA 99%
Signature: 2DE9D9C0DC6A49086E64DFDBC1F37E3D9F978FF2
FILE: 01 - Congo Square Dances - Saints And Sinners.flac
Size: 141026714 Hash: 630EC2AE3B55A213F23CBF388DE65CF0 Accuracy: -m0
Conclusion: CDDA 100%
Signature: 163D8BCD2E3B37E36977AD5212F649923CA0A89B
По всем вопросам пишите личное сообщение пользователю M0p94ok.
06:45
162
Нет комментариев. Ваш будет первым!