Вы используете незарегистрированную версию компонента "Вкладки"!

Поиск

(Avant-Garde Jazz) Happy House - Inoxydable - 2008, FLAC (tracks+.cue), lossless

(Avant-Garde Jazz) Happy House - Inoxydable - 2008, FLAC (tracks+.cue), lossless
Треклист:
Happy House - Inoxydable
Жанр: Avant-Garde Jazz
Страна-производитель диска: Франция
Год издания: 2008
Издатель (лейбл): Circum-Disc
Номер по каталогу: CIDI801
Аудиокодек: FLAC (*.flac)
Тип рипа: tracks+.cue
Битрейт аудио: lossless
Продолжительность: 64:39
Источник (релизер): lindinalwa (what)
Наличие сканов в содержимом раздачи: да
Треклист:
01. Incus (Benoit) - 4:55
02. Chair (Benoit) - 9:42
03. Disjonction (Benoit) - 8:03
04. Soma (Benoit) - 3:26
05. Hypotension (Benoit) - 4:44
06. Germen (Benoit) - 6:17
07. Abyme (Benoit) - 10:52
08. Inoxydable (Benoit) - 4:54
09. S. (Benoit) - 5:29
10. Putamen (Benoit) - 6:17
Состав:
Oliver Benoit - guitar
Julien Favreuille - saxophone
Nicolas Mahieux - bass
Jean-Luc Landsweerdt - drums
Recorded on October 30 - November 2, 2007.
 
Лог создания рипа
Exact Audio Copy V0.99 prebeta 5 from 4. May 2009
EAC extraction logfile from 25. March 2011, 20:32
Happy House / Inoxydable
Used drive : Optiarc DVD RW AD-7243S Adapter: 0 ID: 1
Read mode : Secure
Utilize accurate stream : Yes
Defeat audio cache : Yes
Make use of C2 pointers : No
Read offset correction : 48
Overread into Lead-In and Lead-Out : No
Fill up missing offset samples with silence : Yes
Delete leading and trailing silent blocks : No
Null samples used in CRC calculations : Yes
Used interface : Native Win32 interface for Win NT & 2000
Gap handling : Appended to previous track
Used output format : User Defined Encoder
Selected bitrate : 768 kBit/s
Quality : High
Add ID3 tag : No
Command line compressor : C:\Program Files\Exact Audio Copy\FLAC\FLAC.EXE
Additional command line options : -6 -V -T "ARTIST=%a" -T "TITLE=%t" -T "ALBUM=%g" -T "DATE=%y" -T "TRACKNUMBER=%n" -T "GENRE=%m" -T "COMMENT=%e" %s -o %d
TOC of the extracted CD
Track | Start | Length | Start sector | End sector
---------------------------------------------------------
1 | 0:00.00 | 4:55.37 | 0 | 22161
2 | 4:55.37 | 9:42.09 | 22162 | 65820
3 | 14:37.46 | 8:03.17 | 65821 | 102062
4 | 22:40.63 | 3:26.05 | 102063 | 117517
5 | 26:06.68 | 4:44.30 | 117518 | 138847
6 | 30:51.23 | 6:16.71 | 138848 | 167118
7 | 37:08.19 | 10:52.27 | 167119 | 216045
8 | 48:00.46 | 4:54.35 | 216046 | 238130
9 | 52:55.06 | 5:28.56 | 238131 | 262786
10 | 58:23.62 | 6:16.62 | 262787 | 291048
Track 1
Filename C:\Documents and Settings\S\Мои документы\Torrent раздача\01. Happy House-Incus.wav
Pre-gap length 0:00:02.00
Peak level 94.4 %
Track quality 100.0 %
Test CRC 4A33155F
Copy CRC 4A33155F
Track not present in AccurateRip database
Copy OK
Track 2
Filename C:\Documents and Settings\S\Мои документы\Torrent раздача\02. Happy House-Chair.wav
Pre-gap length 0:00:00.68
Peak level 96.9 %
Track quality 99.9 %
Test CRC F969E380
Copy CRC F969E380
Track not present in AccurateRip database
Copy OK
Track 3
Filename C:\Documents and Settings\S\Мои документы\Torrent раздача\03. Happy House-Disjonction.wav
Pre-gap length 0:00:01.22
Peak level 100.0 %
Track quality 100.0 %
Test CRC EED6FDED
Copy CRC EED6FDED
Track not present in AccurateRip database
Copy OK
Track 4
Filename C:\Documents and Settings\S\Мои документы\Torrent раздача\04. Happy House-Soma.wav
Pre-gap length 0:00:12.00
Peak level 96.5 %
Track quality 100.0 %
Test CRC 4325BC78
Copy CRC 4325BC78
Track not present in AccurateRip database
Copy OK
Track 5
Filename C:\Documents and Settings\S\Мои документы\Torrent раздача\05. Happy House-Hypotension.wav
Pre-gap length 0:00:02.51
Peak level 100.0 %
Track quality 100.0 %
Test CRC 64964318
Copy CRC 64964318
Track not present in AccurateRip database
Copy OK
Track 6
Filename C:\Documents and Settings\S\Мои документы\Torrent раздача\06. Happy House-Germen.wav
Peak level 100.0 %
Track quality 100.0 %
Test CRC C06DF1E3
Copy CRC C06DF1E3
Track not present in AccurateRip database
Copy OK
Track 7
Filename C:\Documents and Settings\S\Мои документы\Torrent раздача\07. Happy House-Abyme.wav
Pre-gap length 0:00:01.53
Peak level 100.0 %
Track quality 100.0 %
Test CRC 53087F8D
Copy CRC 53087F8D
Track not present in AccurateRip database
Copy OK
Track 8
Filename C:\Documents and Settings\S\Мои документы\Torrent раздача\08. Happy House-Inoxydable.wav
Peak level 100.0 %
Track quality 100.0 %
Test CRC 3CB6157F
Copy CRC 3CB6157F
Track not present in AccurateRip database
Copy OK
Track 9
Filename C:\Documents and Settings\S\Мои документы\Torrent раздача\09. Happy House-S..wav
Pre-gap length 0:00:02.00
Peak level 100.0 %
Track quality 99.9 %
Test CRC DD50E4B1
Copy CRC DD50E4B1
Track not present in AccurateRip database
Copy OK
Track 10
Filename C:\Documents and Settings\S\Мои документы\Torrent раздача\10. Happy House-Putamen.wav
Pre-gap length 0:00:01.47
Peak level 100.0 %
Track quality 99.7 %
Test CRC 286220B6
Copy CRC 286220B6
Track not present in AccurateRip database
Copy OK
None of the tracks are present in the AccurateRip database
No errors occurred
End of status report
 
Содержание индексной карты (.CUE)
REM GENRE Jazz
REM DATE 2007
REM DISCID 970F280A
REM COMMENT "ExactAudioCopy v0.99pb5"
PERFORMER "Happy House"
TITLE "Inoxydable"
FILE "01 - Incus.wav" WAVE
TRACK 01 AUDIO
TITLE "Incus"
PERFORMER " Happy House"
INDEX 01 00:00:00
TRACK 02 AUDIO
TITLE "Chair"
PERFORMER " Happy House"
INDEX 00 04:54:44
FILE "02 - Chair.wav" WAVE
INDEX 01 00:00:00
TRACK 03 AUDIO
TITLE "Disjonction"
PERFORMER " Happy House"
INDEX 00 09:40:62
FILE "03 - Disjonction.wav" WAVE
INDEX 01 00:00:00
TRACK 04 AUDIO
TITLE "Soma"
PERFORMER " Happy House"
INDEX 00 07:51:17
FILE "04 - Soma.wav" WAVE
INDEX 01 00:00:00
TRACK 05 AUDIO
TITLE "Hypotension"
PERFORMER " Happy House"
INDEX 00 03:23:29
FILE "05 - Hypotension.wav" WAVE
INDEX 01 00:00:00
FILE "06 - Germen.wav" WAVE
TRACK 06 AUDIO
TITLE "Germen"
PERFORMER " Happy House"
INDEX 01 00:00:00
TRACK 07 AUDIO
TITLE "Abyme"
PERFORMER " Happy House"
INDEX 00 06:15:18
FILE "07 - Abyme.wav" WAVE
INDEX 01 00:00:00
FILE "08 - Inoxydable.wav" WAVE
TRACK 08 AUDIO
TITLE "Inoxydable"
PERFORMER " Happy House"
INDEX 01 00:00:00
TRACK 09 AUDIO
TITLE "S."
PERFORMER " Happy House"
INDEX 00 04:52:35
FILE "09 - S..wav" WAVE
INDEX 01 00:00:00
TRACK 10 AUDIO
TITLE "Putamen"
PERFORMER " Happy House"
INDEX 00 05:27:09
FILE "10 - Putamen.wav" WAVE
INDEX 01 00:00:00
 
Отчет CUETools
[CUETools log; Date: 17.09.2013 20:20:14; Version: 2.1.4]
[CTDB TOCID: MF17emJQhyuNISAbXzgYEDBgHok-] disk not present in database.
[AccurateRip ID: 0018be28-00c578c3-970f280a] found.
Track [ CRC | V2 ] Status
01 [12eb81d2|2795b964] (0+1/1) Accurately ripped
02 [96d90c34|1322611f] (0+1/1) Accurately ripped
03 [c82e701e|d3f68b4c] (0+1/1) Accurately ripped
04 [72dc4b54|ded0fa73] (0+1/1) Accurately ripped
05 [a503b547|db4209b8] (0+1/1) Accurately ripped
06 [df4dfe18|1966728e] (0+1/1) Accurately ripped
07 [24ba6c63|527d84d6] (0+1/1) Accurately ripped
08 [67f01df2|47da8d14] (0+1/1) Accurately ripped
09 [2d5bf592|92b9694b] (0+1/1) Accurately ripped
10 [5d291bf5|f1f62544] (0+1/1) Accurately ripped
Track Peak [ CRC32 ] [W/O NULL] [ LOG ]
-- 100,0 [56A25D76] [B46FACDF]
01 94,4 [4A33155F] [C20FA30B] CRC32
02 96,9 [F969E380] [F3EF4B91] CRC32
03 100,0 [EED6FDED] [0FECD84F] CRC32
04 96,5 [4325BC78] [652C9A9E] CRC32
05 100,0 [64964318] [A570BE05] CRC32
06 100,0 [C06DF1E3] [4EAA7ED7] CRC32
07 100,0 [53087F8D] [2FD8AF84] CRC32
08 100,0 [3CB6157F] [816A1B56] CRC32
09 100,0 [DD50E4B1] [F968A638] CRC32
10 100,0 [286220B6] [603D17FF] CRC32
 
Об альбоме (сборнике)
Happy House is a French band led by guitarist Olivier Benoit, with Julien Favreuille on sax, Nicolas Mahieux on bass and Jean-Luc Landsweerdt on drums. Their rock-influenced jazz is very modern, very creative and unlike many fusion : the music has incredible strong focus and emotional expressiveness. The quality of the band is that they join fragility with explosiveness, control with boundless possibilities, subtlety with a raw punk-attitude. The band was created more than 15 years ago, and started out much more in a free jazz environment, but just to take everyone by surprise, the band now shifted its approach to very composed and often complex pieces, with lots of rhythm and mood changes, but without losing the directness of jazz improvisation or of rock music. Dark, angry and sentimental, and still maintaining coherence, not bad ... And the fact that these four guys have played together for a while can also be heard. Nice!
Any questions -> support@pro-jazz.com. По всем вопросам пишите -> support@pro-jazz.com
18:15
200
Нет комментариев. Ваш будет первым!