Вы используете незарегистрированную версию компонента "Вкладки"!

Поиск

(Avant-Garde, Contemporary Jazz, ACT Music) David Binney (with Wayne Krantz, Uri Caine, Tim Lefebvre, Jim Black) - Balance - 2002, FLAC (tracks+.cue), lossless

(Avant-Garde, Contemporary Jazz, ACT Music) David Binney (with Wayne Krantz, Uri Caine, Tim Lefebvre, Jim Black) - Balance - 2002, FLAC (tracks+.cue), lossless
Издатель (лейбл):
Треклист:
David Binney / Balance
Жанр: Avant-Garde, Contemporary Jazz, ACT Music
Страна-производитель диска: Germany
Год издания: 2002
Издатель (лейбл): ACT Music
Номер по каталогу: ACT 9411-2
Аудиокодек: FLAC (*.flac)
Тип рипа: tracks+.cue
Битрейт аудио: lossless
Продолжительность: 1:00:13
Источник (релизер): Max Monteiro
Наличие сканов в содержимом раздачи: нет
Треклист:
01. Balance 6:36
02. Marvin Gaye 4:55
03. Arlmyn Trangent 6:49
04. I’ll Finally Answer 7:51
05. Midnight Sevilla 1:35
06. Speedy’s 9 Is 10 5:40
07. We Always Cried 5:25
08. Lurker 4:18
09. Rincon 4:45
10. Fidene 4:18
11. Arlmyn Trangent Reliv 3:07
12. Perenne 4:55
All music written by David Binney.
Recorded in July / August 2001 at Systems Two, Brooklyn, NY.
David Binney – Alto Saxophone, Tenor Saxophone on 9, Synth solo on 12
Wayne Krantz – Guitar
Uri Caine – Piano, Synth
Tim Lefebvre – Bass
Jim Black – Drums
guests:
Adam Rogers – Guitar on 6, 11
Fima Ephron – Bass on 6, 11
Donny McCaslin – Tenor Saxophone on 1, 3, 6, 8, 9
Tanya Henri – Vocals
Peck Almond – Brass
Kenny Wollesen – Broom on 12
Jon Haffner – Alto Saxophone on intro, #1
 
Лог создания рипа
Exact Audio Copy V1.0 beta 3 from 29. August 2011
EAC extraction logfile from 13. September 2013, 12:29
David Binney / Balance
Used drive : SlimtypeeNAU508 5 Adapter: 1 ID: 0
Read mode : Secure
Utilize accurate stream : Yes
Defeat audio cache : Yes
Make use of C2 pointers : No
Read offset correction : 6
Overread into Lead-In and Lead-Out : No
Fill up missing offset samples with silence : Yes
Delete leading and trailing silent blocks : No
Null samples used in CRC calculations : Yes
Used interface : Native Win32 interface for Win NT & 2000
Gap handling : Appended to previous track
Used output format : User Defined Encoder
Selected bitrate : 768 kBit/s
Quality : High
Add ID3 tag : No
Command line compressor : C:\Program Files (x86)\Exact Audio Copy\Flac\flac.exe
Additional command line options : -8 -V -T "ARTIST=%artist%" -T "TITLE=%title%" -T "ALBUM=%albumtitle%" -T "DATE=%year%" -T "TRACKNUMBER=%tracknr%" -T "GENRE=%genre%" -T "PERFORMER=%albuminterpret%" -T "COMPOSER=%composer%" %haslyrics%--tag-from-file=LYRICS="%lyricsfile%"%haslyrics% -T "ALBUMARTIST=%albumartist%" -T "DISCNUMBER=%cdnumber%" -T "TOTALDISCS=%totalcds%" -T "TOTALTRACKS=%numtracks%" -T "COMMENT=%comment%" %source% -o %dest%
TOC of the extracted CD
Track | Start | Length | Start sector | End sector
---------------------------------------------------------
1 | 0:00.00 | 6:35.50 | 0 | 29674
2 | 6:35.50 | 4:55.21 | 29675 | 51820
3 | 11:30.71 | 6:49.12 | 51821 | 82507
4 | 18:20.08 | 7:50.53 | 82508 | 117810
5 | 26:10.61 | 1:34.38 | 117811 | 124898
6 | 27:45.24 | 5:39.46 | 124899 | 150369
7 | 33:24.70 | 5:24.71 | 150370 | 174740
8 | 38:49.66 | 4:18.26 | 174741 | 194116
9 | 43:08.17 | 4:44.70 | 194117 | 215486
10 | 47:53.12 | 4:18.22 | 215487 | 234858
11 | 52:11.34 | 3:06.58 | 234859 | 248866
12 | 55:18.17 | 4:54.40 | 248867 | 270956
Track 1
Filename C:\EAC rips\01 - Balance.wav
Pre-gap length 0:00:02.00
Peak level 99.9 %
Extraction speed 2.3 X
Track quality 100.0 %
Test CRC 500E2A54
Copy CRC 500E2A54
Accurately ripped (confidence 7) [4562CC46] (AR v2)
Copy OK
Track 2
Filename C:\EAC rips\02 - Marvin Gaye.wav
Peak level 99.9 %
Extraction speed 2.6 X
Track quality 100.0 %
Test CRC A2F84D13
Copy CRC A2F84D13
Accurately ripped (confidence 7) [5993E748] (AR v2)
Copy OK
Track 3
Filename C:\EAC rips\03 - Arlmyn Trangent.wav
Peak level 97.7 %
Extraction speed 2.9 X
Track quality 100.0 %
Test CRC 69A6A443
Copy CRC 69A6A443
Accurately ripped (confidence 7) [B5EA0F04] (AR v2)
Copy OK
Track 4
Filename C:\EAC rips\04 - I'll Finally Answer.wav
Pre-gap length 0:00:01.40
Peak level 98.2 %
Extraction speed 3.3 X
Track quality 100.0 %
Test CRC 2C56CC44
Copy CRC 2C56CC44
Accurately ripped (confidence 7) [6E1E7FB3] (AR v2)
Copy OK
Track 5
Filename C:\EAC rips\05 - Midnight Sevilla.wav
Pre-gap length 0:00:03.04
Peak level 95.8 %
Extraction speed 2.7 X
Track quality 100.0 %
Test CRC 9C179AB9
Copy CRC 9C179AB9
Accurately ripped (confidence 7) [CBD9B882] (AR v2)
Copy OK
Track 6
Filename C:\EAC rips\06 - Speedy's 9 Is 10.wav
Pre-gap length 0:00:00.59
Peak level 97.7 %
Extraction speed 3.1 X
Track quality 99.9 %
Test CRC 9EFCE8EF
Copy CRC 9EFCE8EF
Accurately ripped (confidence 7) [5C80AA38] (AR v2)
Copy OK
Track 7
Filename C:\EAC rips\07 - We Always Cried.wav
Pre-gap length 0:00:00.15
Peak level 99.9 %
Extraction speed 3.7 X
Track quality 100.0 %
Test CRC 32D49D12
Copy CRC 32D49D12
Accurately ripped (confidence 7) [FB74A9A6] (AR v2)
Copy OK
Track 8
Filename C:\EAC rips\08 - Lurker.wav
Peak level 96.8 %
Extraction speed 3.8 X
Track quality 100.0 %
Test CRC D53858D3
Copy CRC D53858D3
Accurately ripped (confidence 7) [30B69041] (AR v2)
Copy OK
Track 9
Filename C:\EAC rips\09 - Rincon.wav
Pre-gap length 0:00:03.39
Peak level 99.9 %
Extraction speed 4.0 X
Track quality 100.0 %
Test CRC 80FABDAF
Copy CRC 80FABDAF
Accurately ripped (confidence 7) [01E731A6] (AR v2)
Copy OK
Track 10
Filename C:\EAC rips\10 - Fidene.wav
Peak level 97.4 %
Extraction speed 3.4 X
Track quality 99.9 %
Test CRC 228CFA5D
Copy CRC 228CFA5D
Accurately ripped (confidence 7) [C7FA2720] (AR v2)
Copy OK
Track 11
Filename C:\EAC rips\11 - Arlmyn Trangent Reliv.wav
Pre-gap length 0:00:03.05
Peak level 96.1 %
Extraction speed 3.9 X
Track quality 100.0 %
Test CRC D92562C6
Copy CRC D92562C6
Accurately ripped (confidence 7) [0F1B486A] (AR v2)
Copy OK
Track 12
Filename C:\EAC rips\12 - Perenne.wav
Pre-gap length 0:00:04.03
Peak level 98.4 %
Extraction speed 4.4 X
Track quality 100.0 %
Test CRC 35F408F1
Copy CRC 35F408F1
Accurately ripped (confidence 7) [65111461] (AR v2)
Copy OK
All tracks accurately ripped
No errors occurred
End of status report
---- CUETools DB Plugin V2.1.4
[CTDB TOCID: 7sz7BMD.6oqYNtuZj1xswLPi5Ds-] found
Submit result: 7sz7BMD.6oqYNtuZj1xswLPi5Ds- has been confirmed
Track | CTDB Status
1 | (4/4) Accurately ripped
2 | (4/4) Accurately ripped
3 | (4/4) Accurately ripped
4 | (4/4) Accurately ripped
5 | (4/4) Accurately ripped
6 | (4/4) Accurately ripped
7 | (4/4) Accurately ripped
8 | (4/4) Accurately ripped
9 | (4/4) Accurately ripped
10 | (4/4) Accurately ripped
11 | (4/4) Accurately ripped
12 | (4/4) Accurately ripped
==== Log checksum 831B1FE727FE3399693ADF324A2CF19F366E898A5ECE9EA4F44DD368C0C47048 ====
 
Содержание индексной карты (.CUE)
REM GENRE Jazz
REM DATE 2002
REM DISCID 960E1C0C
REM COMMENT "ExactAudioCopy v1.0b3"
PERFORMER "David Binney"
TITLE "Balance"
FILE "01 - Balance.wav" WAVE
TRACK 01 AUDIO
TITLE "Balance"
PERFORMER "David Binney"
ISRC DEA890210211
INDEX 01 00:00:00
FILE "02 - Marvin Gaye.wav" WAVE
TRACK 02 AUDIO
TITLE "Marvin Gaye"
PERFORMER "David Binney"
ISRC DEA890210212
INDEX 01 00:00:00
FILE "03 - Arlmyn Trangent.wav" WAVE
TRACK 03 AUDIO
TITLE "Arlmyn Trangent"
PERFORMER "David Binney"
ISRC DEA890210213
INDEX 01 00:00:00
TRACK 04 AUDIO
TITLE "I'll Finally Answer"
PERFORMER "David Binney"
ISRC DEA890210214
INDEX 00 06:47:47
FILE "04 - I'll Finally Answer.wav" WAVE
INDEX 01 00:00:00
TRACK 05 AUDIO
TITLE "Midnight Sevilla"
PERFORMER "David Binney"
ISRC DEA890210215
INDEX 00 07:47:49
FILE "05 - Midnight Sevilla.wav" WAVE
INDEX 01 00:00:00
TRACK 06 AUDIO
TITLE "Speedy's 9 Is 10"
PERFORMER "David Binney"
ISRC DEA890210216
INDEX 00 01:33:54
FILE "06 - Speedy's 9 Is 10.wav" WAVE
INDEX 01 00:00:00
TRACK 07 AUDIO
TITLE "We Always Cried"
PERFORMER "David Binney"
ISRC DEA890210217
INDEX 00 05:39:31
FILE "07 - We Always Cried.wav" WAVE
INDEX 01 00:00:00
FILE "08 - Lurker.wav" WAVE
TRACK 08 AUDIO
TITLE "Lurker"
PERFORMER "David Binney"
ISRC DEA890210218
INDEX 01 00:00:00
TRACK 09 AUDIO
TITLE "Rincon"
PERFORMER "David Binney"
ISRC DEA890210219
INDEX 00 04:14:62
FILE "09 - Rincon.wav" WAVE
INDEX 01 00:00:00
FILE "10 - Fidene.wav" WAVE
TRACK 10 AUDIO
TITLE "Fidene"
PERFORMER "David Binney"
ISRC DEA890210222
INDEX 01 00:00:00
TRACK 11 AUDIO
TITLE "Arlmyn Trangent Reliv"
PERFORMER "David Binney"
ISRC DEA890210223
INDEX 00 04:15:17
FILE "11 - Arlmyn Trangent Reliv.wav" WAVE
INDEX 01 00:00:00
TRACK 12 AUDIO
TITLE "Perenne"
PERFORMER "David Binney"
ISRC DEA890210224
INDEX 00 03:02:55
FILE "12 - Perenne.wav" WAVE
INDEX 01 00:00:00
Any questions -> support@pro-jazz.com. По всем вопросам пишите -> support@pro-jazz.com
18:16
421
Нет комментариев. Ваш будет первым!