Вы используете незарегистрированную версию компонента "Вкладки"!

Поиск

(Contemporary Jazz, Altri Suoni) Marc Perrenoud, Sylvain Ghio - Stream Out - 2006, FLAC (tracks+.cue), lossless

(Contemporary Jazz, Altri Suoni) Marc Perrenoud, Sylvain Ghio - Stream Out - 2006, FLAC (tracks+.cue), lossless
Треклист:
Marc Perrenoud, Sylvain Ghio / Stream Out
Жанр: Contemporary Jazz, Altri Suoni
Страна-производитель диска: Switzerland
Год издания: 2006
Издатель (лейбл): Altri Suoni
Номер по каталогу: AS 208
Аудиокодек: FLAC (*.flac)
Тип рипа: tracks+.cue
Битрейт аудио: lossless
Продолжительность: 42:42
Источник (релизер): Max Monteiro
Наличие сканов в содержимом раздачи: нет
Треклист:
01. Voyage (Kenny Barron) 4:52
02. Peace (Horace Silver) 5:07
03. Talk to the Trees (Randy Brecker) 5:09
04. My Friends (The Red Hot Chili Peppers) 2:23
05. Enjoy the Silence (Depeche Mode) 9:15
06. L’Escalier (Marc Perrenoud) 4:47
07. Interlude 3 (Marc Perrenoud) 1:33
08. Interlude 7 (Marc Perrenoud) 1:30
09. Distant Hill (Ralph Towner) 2:22
10. Vis Island (Marc Perrenoud) 5:44
Recorded at « Studio d’en face », Ollon, Switzerland on June 11, 12, 13, 2006.
Marc Perrenoud – Piano
Sylvain Ghio – Drums
 
Лог создания рипа
Exact Audio Copy V1.0 beta 3 from 29. August 2011
EAC extraction logfile from 11. September 2013, 13:03
Marc Perrenoud, Sylvain Ghio / Stream Out
Used drive : SlimtypeeNAU508 5 Adapter: 1 ID: 0
Read mode : Secure
Utilize accurate stream : Yes
Defeat audio cache : Yes
Make use of C2 pointers : No
Read offset correction : 6
Overread into Lead-In and Lead-Out : No
Fill up missing offset samples with silence : Yes
Delete leading and trailing silent blocks : No
Null samples used in CRC calculations : Yes
Used interface : Native Win32 interface for Win NT & 2000
Gap handling : Appended to previous track
Used output format : User Defined Encoder
Selected bitrate : 768 kBit/s
Quality : High
Add ID3 tag : No
Command line compressor : C:\Program Files (x86)\Exact Audio Copy\Flac\flac.exe
Additional command line options : -8 -V -T "ARTIST=%artist%" -T "TITLE=%title%" -T "ALBUM=%albumtitle%" -T "DATE=%year%" -T "TRACKNUMBER=%tracknr%" -T "GENRE=%genre%" -T "PERFORMER=%albuminterpret%" -T "COMPOSER=%composer%" %haslyrics%--tag-from-file=LYRICS="%lyricsfile%"%haslyrics% -T "ALBUMARTIST=%albumartist%" -T "DISCNUMBER=%cdnumber%" -T "TOTALDISCS=%totalcds%" -T "TOTALTRACKS=%numtracks%" -T "COMMENT=%comment%" %source% -o %dest%
TOC of the extracted CD
Track | Start | Length | Start sector | End sector
---------------------------------------------------------
1 | 0:00.00 | 4:52.12 | 0 | 21911
2 | 4:52.12 | 5:06.48 | 21912 | 44909
3 | 9:58.60 | 5:09.27 | 44910 | 68111
4 | 15:08.12 | 2:22.57 | 68112 | 78818
5 | 17:30.69 | 9:15.22 | 78819 | 120465
6 | 26:46.16 | 4:47.25 | 120466 | 142015
7 | 31:33.41 | 1:33.04 | 142016 | 148994
8 | 33:06.45 | 1:29.48 | 148995 | 155717
9 | 34:36.18 | 2:21.46 | 155718 | 166338
10 | 36:57.64 | 5:44.19 | 166339 | 192157
Track 1
Filename C:\EAC rips\01 - Voyage.wav
Pre-gap length 0:00:02.00
Peak level 98.8 %
Extraction speed 1.9 X
Track quality 99.9 %
Test CRC EE770F54
Copy CRC EE770F54
Track not present in AccurateRip database
Copy OK
Track 2
Filename C:\EAC rips\02 - Peace.wav
Pre-gap length 0:00:01.38
Peak level 98.8 %
Extraction speed 2.6 X
Track quality 100.0 %
Test CRC 48AE3E28
Copy CRC 48AE3E28
Track not present in AccurateRip database
Copy OK
Track 3
Filename C:\EAC rips\03 - Talk to the Trees.wav
Pre-gap length 0:00:01.04
Peak level 98.8 %
Extraction speed 2.9 X
Track quality 100.0 %
Test CRC 06159EC3
Copy CRC 06159EC3
Track not present in AccurateRip database
Copy OK
Track 4
Filename C:\EAC rips\04 - My Friends.wav
Pre-gap length 0:00:02.00
Peak level 98.8 %
Extraction speed 2.0 X
Track quality 99.9 %
Test CRC B514BE60
Copy CRC B514BE60
Track not present in AccurateRip database
Copy OK
Track 5
Filename C:\EAC rips\05 - Enjoy the Silence.wav
Pre-gap length 0:00:02.39
Peak level 98.8 %
Extraction speed 3.4 X
Track quality 100.0 %
Test CRC F4D0E1AE
Copy CRC F4D0E1AE
Track not present in AccurateRip database
Copy OK
Track 6
Filename C:\EAC rips\06 - L'Escalier.wav
Pre-gap length 0:00:01.07
Peak level 98.8 %
Extraction speed 3.5 X
Track quality 100.0 %
Test CRC 9340DCCD
Copy CRC 9340DCCD
Track not present in AccurateRip database
Copy OK
Track 7
Filename C:\EAC rips\07 - Interlude 3.wav
Pre-gap length 0:00:02.74
Peak level 98.8 %
Extraction speed 3.0 X
Track quality 100.0 %
Test CRC 0E0202BB
Copy CRC 0E0202BB
Track not present in AccurateRip database
Copy OK
Track 8
Filename C:\EAC rips\08 - Interlude 7.wav
Pre-gap length 0:00:02.00
Peak level 98.8 %
Extraction speed 2.0 X
Track quality 99.8 %
Test CRC ED8931B8
Copy CRC ED8931B8
Track not present in AccurateRip database
Copy OK
Track 9
Filename C:\EAC rips\09 - Distant Hill.wav
Pre-gap length 0:00:02.00
Peak level 98.8 %
Extraction speed 3.3 X
Track quality 100.0 %
Test CRC 1867A7C7
Copy CRC 1867A7C7
Track not present in AccurateRip database
Copy OK
Track 10
Filename C:\EAC rips\10 - Vis Island.wav
Pre-gap length 0:00:03.04
Peak level 98.9 %
Extraction speed 3.8 X
Track quality 100.0 %
Test CRC 40E24E37
Copy CRC 40E24E37
Track not present in AccurateRip database
Copy OK
None of the tracks are present in the AccurateRip database
No errors occurred
End of status report
---- CUETools DB Plugin V2.1.4
[CTDB TOCID: ONplmy8doU38bcVskHg_Xg_pBss-] disk not present in database
Submit result: ONplmy8doU38bcVskHg_Xg_pBss- has been uploaded
==== Log checksum 90DD00BC2120B5B5E3B8277DE9A5DFAC3DCF0A828538A3E4A32473CFB0D87CB9 ====
 
Содержание индексной карты (.CUE)
REM GENRE Jazz
REM DATE 2006
REM DISCID 880A020A
REM COMMENT "ExactAudioCopy v1.0b3"
PERFORMER "Marc Perrenoud, Sylvain Ghio"
TITLE "Stream Out"
FILE "01 - Voyage.wav" WAVE
TRACK 01 AUDIO
TITLE "Voyage"
PERFORMER "Marc Perrenoud, Sylvain Ghio"
ISRC CH1880620801
INDEX 01 00:00:00
TRACK 02 AUDIO
TITLE "Peace"
PERFORMER "Marc Perrenoud, Sylvain Ghio"
ISRC CH1880620802
INDEX 00 04:50:49
FILE "02 - Peace.wav" WAVE
INDEX 01 00:00:00
TRACK 03 AUDIO
TITLE "Talk to the Trees"
PERFORMER "Marc Perrenoud, Sylvain Ghio"
ISRC CH1880620803
INDEX 00 05:05:44
FILE "03 - Talk to the Trees.wav" WAVE
INDEX 01 00:00:00
TRACK 04 AUDIO
TITLE "My Friends"
PERFORMER "Marc Perrenoud, Sylvain Ghio"
ISRC CH1880620804
INDEX 00 05:07:27
FILE "04 - My Friends.wav" WAVE
INDEX 01 00:00:00
TRACK 05 AUDIO
TITLE "Enjoy the Silence"
PERFORMER "Marc Perrenoud, Sylvain Ghio"
ISRC CH1880620805
INDEX 00 02:20:18
FILE "05 - Enjoy the Silence.wav" WAVE
INDEX 01 00:00:00
TRACK 06 AUDIO
TITLE "L'Escalier"
PERFORMER "Marc Perrenoud, Sylvain Ghio"
ISRC CH1880620806
INDEX 00 09:14:15
FILE "06 - L'Escalier.wav" WAVE
INDEX 01 00:00:00
TRACK 07 AUDIO
TITLE "Interlude 3"
PERFORMER "Marc Perrenoud, Sylvain Ghio"
ISRC CH1880620807
INDEX 00 04:44:26
FILE "07 - Interlude 3.wav" WAVE
INDEX 01 00:00:00
TRACK 08 AUDIO
TITLE "Interlude 7"
PERFORMER "Marc Perrenoud, Sylvain Ghio"
ISRC CH1880620808
INDEX 00 01:31:04
FILE "08 - Interlude 7.wav" WAVE
INDEX 01 00:00:00
TRACK 09 AUDIO
TITLE "Distant Hill"
PERFORMER "Marc Perrenoud, Sylvain Ghio"
ISRC CH1880620809
INDEX 00 01:27:48
FILE "09 - Distant Hill.wav" WAVE
INDEX 01 00:00:00
TRACK 10 AUDIO
TITLE "Vis Island"
PERFORMER "Marc Perrenoud, Sylvain Ghio"
ISRC CH1880620810
INDEX 00 02:18:42
FILE "10 - Vis Island.wav" WAVE
INDEX 01 00:00:00
По всем вопросам пишите личное сообщение пользователю M0p94ok.
18:14
358
Нет комментариев. Ваш будет первым!