Вы используете незарегистрированную версию компонента "Вкладки"!

Поиск

(Avant-Garde Jazz, Free Jazz) Jeff Kaiser - Nothing Is Not Breath (Music For Double Quartet) - 1998, FLAC (tracks+.cue), lossless

(Avant-Garde Jazz, Free Jazz) Jeff Kaiser - Nothing Is Not Breath (Music For Double Quartet) - 1998, FLAC (tracks+.cue), lossless
Треклист:
Jeff Kaiser / Nothing Is Not Breath (Music For Double Quartet)
Жанр: Avant-Garde Jazz, Free Jazz
Страна-производитель диска: US
Год издания: 1998
Издатель (лейбл): Nine Winds Records
Номер по каталогу: NWCD0206
Страна: US
Аудиокодек: FLAC (*.flac)
Тип рипа: tracks+.cue
Битрейт аудио: lossless
Продолжительность: 69:14
Источник (релизер): свой фирменный диск
Наличие сканов в содержимом раздачи: нет
Треклист:
1 Section I 13:22
2 Section II 8:01
3 Section III 2:41
4 Section IV 4:08
5 Section V 8:48
6 Section VI 6:01
7 Section VII 6:38
8 Section VIII 3:30
9 Section IX 4:03
10 Section X 7:46
11 Section XI 4:10
 
Лог создания рипа
Exact Audio Copy V1.0 beta 2 from 29. April 2011
EAC extraction logfile from 2. November 2012, 0:33
Jeff Kaiser / Nothing Is Not Breath (Music For Double Quartet)
Used drive : PIONEER DVD-RW DVR-115D Adapter: 0 ID: 0
Read mode : Secure
Utilize accurate stream : Yes
Defeat audio cache : Yes
Make use of C2 pointers : No
Read offset correction : 48
Overread into Lead-In and Lead-Out : No
Fill up missing offset samples with silence : Yes
Delete leading and trailing silent blocks : No
Null samples used in CRC calculations : Yes
Used interface : Installed external ASPI interface
Gap handling : Appended to previous track
Used output format : User Defined Encoder
Selected bitrate : 896 kBit/s
Quality : High
Add ID3 tag : No
Command line compressor : C:\Program Files\Exact Audio Copy\FLAC\FLAC.EXE
Additional command line options : -6 -V -T "ARTIST=%artist%" -T "TITLE=%title%" -T "ALBUM=%albumtitle%" -T "DATE=%year%" -T "TRACKNUMBER=%tracknr%" -T "GENRE=%genre%" -T "COMMENT=%comment%" -T "BAND=%albuminterpret%" -T "COMPOSER=%composer%" %haslyrics%--ta
TOC of the extracted CD
Track | Start | Length | Start sector | End sector
---------------------------------------------------------
1 | 0:00.00 | 13:22.45 | 0 | 60194
2 | 13:22.45 | 8:01.40 | 60195 | 96309
3 | 21:24.10 | 2:41.30 | 96310 | 108414
4 | 24:05.40 | 4:08.37 | 108415 | 127051
5 | 28:14.02 | 8:48.70 | 127052 | 166721
6 | 37:02.72 | 6:01.65 | 166722 | 193861
7 | 43:04.62 | 6:38.10 | 193862 | 223721
8 | 49:42.72 | 3:30.70 | 223722 | 239541
9 | 53:13.67 | 4:03.70 | 239542 | 257836
10 | 57:17.62 | 7:46.38 | 257837 | 292824
11 | 65:04.25 | 4:10.30 | 292825 | 311604
Track 1
Filename D:\zzz\01 - Section I.wav
Pre-gap length 0:00:02.00
Peak level 99.0 %
Extraction speed 5.7 X
Track quality 100.0 %
Test CRC E4B803E0
Copy CRC E4B803E0
Track not present in AccurateRip database
Copy OK
Track 2
Filename D:\zzz\02 - Section II.wav
Peak level 99.1 %
Extraction speed 6.6 X
Track quality 100.0 %
Test CRC 49BC47AB
Copy CRC 49BC47AB
Track not present in AccurateRip database
Copy OK
Track 3
Filename D:\zzz\03 - Section III.wav
Peak level 25.8 %
Extraction speed 6.1 X
Track quality 100.0 %
Test CRC 497571F3
Copy CRC 497571F3
Track not present in AccurateRip database
Copy OK
Track 4
Filename D:\zzz\04 - Section IV.wav
Peak level 99.0 %
Extraction speed 6.8 X
Track quality 100.0 %
Test CRC D66C1940
Copy CRC D66C1940
Track not present in AccurateRip database
Copy OK
Track 5
Filename D:\zzz\05 - Section V.wav
Peak level 99.0 %
Extraction speed 7.8 X
Track quality 100.0 %
Test CRC 565927F1
Copy CRC 565927F1
Track not present in AccurateRip database
Copy OK
Track 6
Filename D:\zzz\06 - Section VI.wav
Peak level 58.3 %
Extraction speed 7.3 X
Track quality 99.9 %
Test CRC B2B9B41E
Copy CRC B2B9B41E
Track not present in AccurateRip database
Copy OK
Track 7
Filename D:\zzz\07 - Section VII.wav
Peak level 99.0 %
Extraction speed 8.5 X
Track quality 100.0 %
Test CRC 37715C5A
Copy CRC 37715C5A
Track not present in AccurateRip database
Copy OK
Track 8
Filename D:\zzz\08 - Section VIII.wav
Peak level 55.8 %
Extraction speed 8.1 X
Track quality 100.0 %
Test CRC A3DB1634
Copy CRC A3DB1634
Track not present in AccurateRip database
Copy OK
Track 9
Filename D:\zzz\09 - Section IX.wav
Peak level 99.0 %
Extraction speed 8.5 X
Track quality 100.0 %
Test CRC CCD0C068
Copy CRC CCD0C068
Track not present in AccurateRip database
Copy OK
Track 10
Filename D:\zzz\10 - Section X.wav
Peak level 99.1 %
Extraction speed 9.4 X
Track quality 100.0 %
Test CRC 9CFBB6FD
Copy CRC 9CFBB6FD
Track not present in AccurateRip database
Copy OK
Track 11
Filename D:\zzz\11 - Section XI.wav
Peak level 99.0 %
Extraction speed 9.1 X
Track quality 100.0 %
Test CRC A5914742
Copy CRC A5914742
Track not present in AccurateRip database
Copy OK
None of the tracks are present in the AccurateRip database
No errors occurred
End of status report
==== Log checksum 463EE6070B47FB71ECBDE690BB2CD77227687E378C488D5EC079C07C426A8BFB ====
 
Содержание индексной карты (.CUE)
REM GENRE Jazz
REM DATE 1998
REM DISCID B2103A0B
REM COMMENT "ExactAudioCopy v1.0b2"
PERFORMER "Jeff Kaiser"
TITLE "Nothing Is Not Breath (Music For Double Quartet)"
FILE "01 - Section I.wav" WAVE
TRACK 01 AUDIO
TITLE "Section I"
PERFORMER "Jeff Kaiser"
INDEX 01 00:00:00
FILE "02 - Section II.wav" WAVE
TRACK 02 AUDIO
TITLE "Section II"
PERFORMER "Jeff Kaiser"
INDEX 01 00:00:00
FILE "03 - Section III.wav" WAVE
TRACK 03 AUDIO
TITLE "Section III"
PERFORMER "Jeff Kaiser"
INDEX 01 00:00:00
FILE "04 - Section IV.wav" WAVE
TRACK 04 AUDIO
TITLE "Section IV"
PERFORMER "Jeff Kaiser"
INDEX 01 00:00:00
FILE "05 - Section V.wav" WAVE
TRACK 05 AUDIO
TITLE "Section V"
PERFORMER "Jeff Kaiser"
INDEX 01 00:00:00
FILE "06 - Section VI.wav" WAVE
TRACK 06 AUDIO
TITLE "Section VI"
PERFORMER "Jeff Kaiser"
INDEX 01 00:00:00
FILE "07 - Section VII.wav" WAVE
TRACK 07 AUDIO
TITLE "Section VII"
PERFORMER "Jeff Kaiser"
INDEX 01 00:00:00
FILE "08 - Section VIII.wav" WAVE
TRACK 08 AUDIO
TITLE "Section VIII"
PERFORMER "Jeff Kaiser"
INDEX 01 00:00:00
FILE "09 - Section IX.wav" WAVE
TRACK 09 AUDIO
TITLE "Section IX"
PERFORMER "Jeff Kaiser"
INDEX 01 00:00:00
FILE "10 - Section X.wav" WAVE
TRACK 10 AUDIO
TITLE "Section X"
PERFORMER "Jeff Kaiser"
INDEX 01 00:00:00
FILE "11 - Section XI.wav" WAVE
TRACK 11 AUDIO
TITLE "Section XI"
PERFORMER "Jeff Kaiser"
INDEX 01 00:00:00
 
Лог проверки качества
d:\>d:\aucdtect -d/-m0 d:\zzz\*.wav
auCDtect: CD records authenticity detector, version 0.8.2
Copyright (c) 2004 Oleg Berngardt. All rights reserved.
Copyright (c) 2004 Alexander Djourik. All rights reserved.
------------------------------------------------------------
Processing file: [01. Section I.wav]
------------------------------------------------------------
This track looks like CDDA with probability 100%
------------------------------------------------------------
Processing file: [02. Section II.wav]
------------------------------------------------------------
This track looks like CDDA with probability 100%
------------------------------------------------------------
Processing file: [03. Section III.wav]
------------------------------------------------------------
This track looks like CDDA with probability 100%
------------------------------------------------------------
Processing file: [04. Section IV.wav]
------------------------------------------------------------
This track looks like CDDA with probability 100%
------------------------------------------------------------
Processing file: [05. Section V.wav]
------------------------------------------------------------
This track looks like CDDA with probability 100%
------------------------------------------------------------
Processing file: [06. Section VI.wav]
------------------------------------------------------------
This track looks like CDDA with probability 99%
------------------------------------------------------------
Processing file: [07. Section VII.wav]
------------------------------------------------------------
This track looks like CDDA with probability 100%
------------------------------------------------------------
Processing file: [08. Section VIII.wav]
------------------------------------------------------------
This track looks like CDDA with probability 100%
------------------------------------------------------------
Processing file: [09. Section IX.wav]
------------------------------------------------------------
This track looks like CDDA with probability 100%
------------------------------------------------------------
Processing file: [10. Section X.wav]
------------------------------------------------------------
This track looks like CDDA with probability 100%
------------------------------------------------------------
Processing file: [11. Section XI.wav]
------------------------------------------------------------
This track looks like CDDA with probability 100%
------------------------------------------------------------
Final Conclusion:
------------------------------------------------------------
These tracks looks like CDDA with probability 100%
 
Состав
Bass Clarinet, Flute [Alto], Bass Saxophone, Soprano Saxophone – Vinny Golia
Double Bass – Hannes Giger, Jim Connolly
Drums, Toy [Toys], Whistle [Human] – Richard West
Organ [Pump], Trumpet – Jeff Kaiser
Trombone – Michael Vlatkovitch
Trombone, Chimes, Gong, Marimba, Timpani, Bodhrán, Rattle [Rattles] – Brad Dutz
Any questions -> support@pro-jazz.com. По всем вопросам пишите -> support@pro-jazz.com
04:57
170
Нет комментариев. Ваш будет первым!