Вы используете незарегистрированную версию компонента "Вкладки"!

Поиск

(Avant-Garde Jazz, Big Band) Mark Harvey & The Aardvark Jazz Orchestra - Aardvark Steps Out - 1993, FLAC (tracks+.cue), lossless

(Avant-Garde Jazz, Big Band) Mark Harvey & The Aardvark Jazz Orchestra - Aardvark Steps Out - 1993, FLAC (tracks+.cue), lossless
Треклист:
Mark Harvey & The Aardvark Jazz Orchestra / Aardvark Steps Out
Жанр: Avant-Garde Jazz, Big Band
Страна-производитель диска: US
Год издания: 1993
Издатель (лейбл): Nine Winds Records
Номер по каталогу: NWCD0155
Страна: US
Аудиокодек: FLAC (*.flac)
Тип рипа: tracks+.cue
Битрейт аудио: lossless
Продолжительность: 71:24
Источник (релизер): свой фирменный диск
Наличие сканов в содержимом раздачи: нет
Треклист:
1. Echoes 5:46
2. Gil 9:29
3. Scamology 7:41
4. Mutant Trumpets 4:49
5. For Edward 3:26
6. A Zippy Manifesto 23:52
7. Blue Sequence 9:15
8. Freedom Song 6:29
 
Лог создания рипа
Exact Audio Copy V1.0 beta 2 from 29. April 2011
EAC extraction logfile from 2. November 2012, 0:04
Mark Harvey & The Aardvark Jazz Orchestra / Aardvark Steps Out
Used drive : PIONEER DVD-RW DVR-115D Adapter: 0 ID: 0
Read mode : Secure
Utilize accurate stream : Yes
Defeat audio cache : Yes
Make use of C2 pointers : No
Read offset correction : 48
Overread into Lead-In and Lead-Out : No
Fill up missing offset samples with silence : Yes
Delete leading and trailing silent blocks : No
Null samples used in CRC calculations : Yes
Used interface : Installed external ASPI interface
Gap handling : Appended to previous track
Used output format : User Defined Encoder
Selected bitrate : 896 kBit/s
Quality : High
Add ID3 tag : No
Command line compressor : C:\Program Files\Exact Audio Copy\FLAC\FLAC.EXE
Additional command line options : -6 -V -T "ARTIST=%artist%" -T "TITLE=%title%" -T "ALBUM=%albumtitle%" -T "DATE=%year%" -T "TRACKNUMBER=%tracknr%" -T "GENRE=%genre%" -T "COMMENT=%comment%" -T "BAND=%albuminterpret%" -T "COMPOSER=%composer%" %haslyrics%--ta
TOC of the extracted CD
Track | Start | Length | Start sector | End sector
---------------------------------------------------------
1 | 0:00.32 | 5:50.00 | 32 | 26281
2 | 5:50.32 | 9:34.00 | 26282 | 69331
3 | 15:24.32 | 7:46.00 | 69332 | 104281
4 | 23:10.32 | 4:55.00 | 104282 | 126406
5 | 28:05.32 | 3:32.00 | 126407 | 142306
6 | 31:37.32 | 23:57.00 | 142307 | 250081
7 | 55:34.32 | 9:19.00 | 250082 | 292006
8 | 64:53.32 | 6:31.05 | 292007 | 321336
Track 1
Filename D:\zzz\01 - Echoes.wav
Pre-gap length 0:00:02.32
Peak level 100.0 %
Extraction speed 5.0 X
Track quality 100.0 %
Test CRC ABBC89D9
Copy CRC ABBC89D9
Cannot be verified as accurate (confidence 1) [7D347C1D], AccurateRip returned [043F8974] (AR v2)
Copy OK
Track 2
Filename D:\zzz\02 - Gil.wav
Pre-gap length 0:00:01.57
Peak level 100.0 %
Extraction speed 5.7 X
Track quality 99.9 %
Test CRC FFA1A5D2
Copy CRC FFA1A5D2
Accurately ripped (confidence 1) [2878D518] (AR v1)
Copy OK
Track 3
Filename D:\zzz\03 - Scamology.wav
Pre-gap length 0:00:02.47
Peak level 81.6 %
Extraction speed 6.8 X
Track quality 100.0 %
Test CRC 219C5182
Copy CRC 219C5182
Accurately ripped (confidence 1) [C91EE138] (AR v1)
Copy OK
Track 4
Filename D:\zzz\04 - Mutant Trumpets.wav
Pre-gap length 0:00:02.67
Peak level 70.6 %
Extraction speed 7.0 X
Track quality 100.0 %
Test CRC 9B6043AE
Copy CRC 9B6043AE
Accurately ripped (confidence 1) [587D7A99] (AR v1)
Copy OK
Track 5
Filename D:\zzz\05 - For Edward.wav
Pre-gap length 0:00:03.47
Peak level 64.5 %
Extraction speed 7.0 X
Track quality 100.0 %
Test CRC 559D37D1
Copy CRC 559D37D1
Accurately ripped (confidence 1) [00FA3EF6] (AR v1)
Copy OK
Track 6
Filename D:\zzz\06 - A Zippy Manifesto.wav
Pre-gap length 0:00:04.37
Peak level 98.8 %
Extraction speed 8.9 X
Track quality 100.0 %
Test CRC 29ECF217
Copy CRC 29ECF217
Accurately ripped (confidence 1) [69BD56F1] (AR v1)
Copy OK
Track 7
Filename D:\zzz\07 - Blue Sequence.wav
Pre-gap length 0:00:03.05
Peak level 85.9 %
Extraction speed 9.5 X
Track quality 100.0 %
Test CRC D10BC931
Copy CRC D10BC931
Accurately ripped (confidence 1) [37BC50B8] (AR v1)
Copy OK
Track 8
Filename D:\zzz\08 - Freedom Song.wav
Pre-gap length 0:00:02.30
Peak level 96.4 %
Extraction speed 9.7 X
Track quality 100.0 %
Test CRC 4F280681
Copy CRC 4F280681
Accurately ripped (confidence 1) [B35E13AA] (AR v1)
Copy OK
7 track(s) accurately ripped
1 track(s) could not be verified as accurate
Some tracks could not be verified as accurate
No errors occurred
End of status report
==== Log checksum 72A6B3CF2CC019EC35617E94DF452B39F87ED1B675FDB613F47E166B1BC7A323 ====
 
Содержание индексной карты (.CUE)
REM GENRE "Big Band"
REM DATE 1993
REM DISCID 8510BC08
REM COMMENT "ExactAudioCopy v1.0b2"
PERFORMER "Mark Harvey & The Aardvark Jazz Orchestra"
TITLE "Aardvark Steps Out"
FILE "01 - Echoes.wav" WAVE
TRACK 01 AUDIO
TITLE "Echoes"
PERFORMER "Mark Harvey & The Aardvark Jazz Orchestra"
PREGAP 00:00:32
INDEX 01 00:00:00
TRACK 02 AUDIO
TITLE "Gil"
PERFORMER "Mark Harvey & The Aardvark Jazz Orchestra"
INDEX 00 05:48:18
FILE "02 - Gil.wav" WAVE
INDEX 01 00:00:00
TRACK 03 AUDIO
TITLE "Scamology"
PERFORMER "Mark Harvey & The Aardvark Jazz Orchestra"
INDEX 00 09:31:28
FILE "03 - Scamology.wav" WAVE
INDEX 01 00:00:00
TRACK 04 AUDIO
TITLE "Mutant Trumpets"
PERFORMER "Mark Harvey & The Aardvark Jazz Orchestra"
INDEX 00 07:43:08
FILE "04 - Mutant Trumpets.wav" WAVE
INDEX 01 00:00:00
TRACK 05 AUDIO
TITLE "For Edward"
PERFORMER "Mark Harvey & The Aardvark Jazz Orchestra"
INDEX 00 04:51:28
FILE "05 - For Edward.wav" WAVE
INDEX 01 00:00:00
TRACK 06 AUDIO
TITLE "A Zippy Manifesto"
PERFORMER "Mark Harvey & The Aardvark Jazz Orchestra"
INDEX 00 03:27:38
FILE "06 - A Zippy Manifesto.wav" WAVE
INDEX 01 00:00:00
TRACK 07 AUDIO
TITLE "Blue Sequence"
PERFORMER "Mark Harvey & The Aardvark Jazz Orchestra"
INDEX 00 23:53:70
FILE "07 - Blue Sequence.wav" WAVE
INDEX 01 00:00:00
TRACK 08 AUDIO
TITLE "Freedom Song"
PERFORMER "Mark Harvey & The Aardvark Jazz Orchestra"
INDEX 00 09:16:45
FILE "08 - Freedom Song.wav" WAVE
INDEX 01 00:00:00
 
Лог проверки качества
d:\>d:\aucdtect -d/-m0 d:\zzz\*.wav
auCDtect: CD records authenticity detector, version 0.8.2
Copyright (c) 2004 Oleg Berngardt. All rights reserved.
Copyright (c) 2004 Alexander Djourik. All rights reserved.
------------------------------------------------------------
Processing file: [01. Echoes.wav]
------------------------------------------------------------
This track looks like CDDA with probability 99%
------------------------------------------------------------
Processing file: [02. Gil.wav]
------------------------------------------------------------
This track looks like CDDA with probability 100%
------------------------------------------------------------
Processing file: [03. Scamology.wav]
------------------------------------------------------------
This track looks like CDDA with probability 100%
------------------------------------------------------------
Processing file: [04. Mutant Trumpets.wav]
------------------------------------------------------------
This track looks like CDDA with probability 100%
------------------------------------------------------------
Processing file: [05. For Edward.wav]
------------------------------------------------------------
This track looks like CDDA with probability 100%
------------------------------------------------------------
Processing file: [06. A Zippy Manifesto.wav]
------------------------------------------------------------
This track looks like CDDA with probability 100%
------------------------------------------------------------
Processing file: [07. Blue Sequence.wav]
------------------------------------------------------------
This track looks like CDDA with probability 100%
------------------------------------------------------------
Processing file: [08. Freedom Song.wav]
------------------------------------------------------------
This track looks like CDDA with probability 100%
------------------------------------------------------------
Final Conclusion:
------------------------------------------------------------
These tracks looks like CDDA with probability 100%
Доп. информация:
 
Album Info
1-3, 7 & 8 recorded August 7 & 12, 1991, Killian Hall, MIT, Cambridge, MA
4-6 recorded live in concert April 26, 1991, Kresge Auditorium, MIT, Cambridge, MA
 
Состав
Arni Cheatham, Peter Bloom, Tom Hall, Phil Scarff, Brad Jones, Vinny Golia: saxes & woodwinds
Mike Peipman, Frank London, Jeanne Snodgrass, Raj Mehta: trumpets
Marshall Sealy: french horn
Bob Pilkington, Jay Keyser, Jeff Marsanskis: trombones
Rick Nelson: guitar
Diana Herold: vibes
Ken Filiano, Joe Higgins, Brian McCree: contrabasses
Jerry Edwards: electric bass & vocalist
Harry Wellott: drums
Craig Ellis: percussion
Donna Hewitt-Didham: vocalist
Mark Harvey: music director, trumpet & piano
Any questions -> support@pro-jazz.com. По всем вопросам пишите -> support@pro-jazz.com
04:57
199
Нет комментариев. Ваш будет первым!