Вы используете незарегистрированную версию компонента "Вкладки"!

Поиск

(Avant-Garde Jazz, Free Jazz, Improvisation) Barry Guy, Marilyn Crispell, Paul Lytton - Odyssey - 2002, FLAC (tracks+.cue), lossless

(Avant-Garde Jazz, Free Jazz, Improvisation) Barry Guy, Marilyn Crispell, Paul Lytton - Odyssey - 2002, FLAC (tracks+.cue), lossless
Треклист:
O D Y S S E Y

B a r r y
G u y
M a r i l y n
C r i s p e l l
P a u l
L y t t o n
Жанр: Avant-Garde Jazz, Free Jazz, Improvisation
Страна-производитель диска: Switzerland
Год издания диска: 2002
Издатель (лейбл): Intakt Records
Номер по каталогу: 070
Аудио кодек: FLAC (*.flac)
Тип рипа: tracks+.cue
Битрейт аудио: lossless
Продолжительность: 63:46
Наличие сканов в содержимом раздачи: да
Источник (релизер): thanks Redsjazz
Треклист:
1. Double Trouble Too
2. Odyssey
3. Heavy Metal
4. Spike
5. Rags
6. Luna
7. Celestial
8. Blade
9. Harmos
Barry Guy - Bass
Marilyn Crispell - Piano
Paul Lytton - PercussionБлагодарность за корректный рип bnepal
 
Лог EAC
EAC extraction logfile from 9. January 2009, 1:47 for CD
Barry Guy & Marilyn Crispell & Paul Lytton / Odyssey
Used drive : HL-DT-STDVDRAM GSA-H10N Adapter: 0 ID: 0
Read mode : Secure with NO C2, accurate stream, disable cache
Read offset correction : 667
Overread into Lead-In and Lead-Out : No
Used output format : C:\Program Files\FLAC\flac.exe (User Defined Encoder)
128 kBit/s
Additional command line options : -8 -V -T "ARTIST=%a" -T "TITLE=%t" -T "ALBUM=%g" -T "DATE=%y" -T "TRACKNUMBER=%n" -T "GENRE=%m" -T "COMMENT=EAC FLAC -8" %s
Other options :
Fill up missing offset samples with silence : Yes
Delete leading and trailing silent blocks : No
Native Win32 interface for Win NT & 2000
Track 1
Filename D:\Torrents\Barry Guy & Marilyn Crispell & Paul Lytton - Odyssey (1999) [FLAC]\01 - Double Trouble Two.wav
Pre-gap length 0:00:02.00
Peak level 63.5 %
Track quality 100.0 %
Test CRC A767ACC2
Copy CRC A767ACC2
Copy OK
Track 2
Filename D:\Torrents\Barry Guy & Marilyn Crispell & Paul Lytton - Odyssey (1999) [FLAC]\02 - Odyssey.wav
Peak level 70.8 %
Track quality 100.0 %
Test CRC 98142C59
Copy CRC 98142C59
Copy OK
Track 3
Filename D:\Torrents\Barry Guy & Marilyn Crispell & Paul Lytton - Odyssey (1999) [FLAC]\03 - Heavy Metal.wav
Peak level 99.2 %
Track quality 100.0 %
Test CRC 3BD45E42
Copy CRC 3BD45E42
Copy OK
Track 4
Filename D:\Torrents\Barry Guy & Marilyn Crispell & Paul Lytton - Odyssey (1999) [FLAC]\04 - Spike.wav
Peak level 99.1 %
Track quality 100.0 %
Test CRC 98A3C847
Copy CRC 98A3C847
Copy OK
Track 5
Filename D:\Torrents\Barry Guy & Marilyn Crispell & Paul Lytton - Odyssey (1999) [FLAC]\05 - Rags.wav
Peak level 100.0 %
Track quality 100.0 %
Test CRC 19B9695A
Copy CRC 19B9695A
Copy OK
Track 6
Filename D:\Torrents\Barry Guy & Marilyn Crispell & Paul Lytton - Odyssey (1999) [FLAC]\06 - Luna.wav
Peak level 50.6 %
Track quality 100.0 %
Test CRC 196E0010
Copy CRC 196E0010
Copy OK
Track 7
Filename D:\Torrents\Barry Guy & Marilyn Crispell & Paul Lytton - Odyssey (1999) [FLAC]\07 - Celestial.wav
Peak level 76.0 %
Track quality 99.9 %
Test CRC 49B95465
Copy CRC 49B95465
Copy OK
Track 8
Filename D:\Torrents\Barry Guy & Marilyn Crispell & Paul Lytton - Odyssey (1999) [FLAC]\08 - Blade.wav
Peak level 46.8 %
Track quality 99.9 %
Test CRC 29596C2F
Copy CRC 29596C2F
Copy OK
Track 9
Filename D:\Torrents\Barry Guy & Marilyn Crispell & Paul Lytton - Odyssey (1999) [FLAC]\09 - Harmos.wav
Peak level 99.0 %
Track quality 100.0 %
Test CRC A563242D
Copy CRC A563242D
Copy OK
No errors occured
End of status report
 
Содержание индексной карты (.CUE)
REM GENRE Avantgarde
REM DATE 1999
REM DISCID 8B0EF209
REM COMMENT "ExactAudioCopy v0.95b4"
PERFORMER "Barry Guy & Marilyn Crispell & Paul Lytton"
TITLE "Odyssey"
FILE "01 - Double Trouble Two.wav" WAVE
TRACK 01 AUDIO
TITLE "Double Trouble Two"
PERFORMER "Barry Guy & Marilyn Crispell & Paul Lytton"
INDEX 01 00:00:00
FILE "02 - Odyssey.wav" WAVE
TRACK 02 AUDIO
TITLE "Odyssey"
PERFORMER "Barry Guy & Marilyn Crispell & Paul Lytton"
INDEX 01 00:00:00
FILE "03 - Heavy Metal.wav" WAVE
TRACK 03 AUDIO
TITLE "Heavy Metal"
PERFORMER "Barry Guy & Marilyn Crispell & Paul Lytton"
INDEX 01 00:00:00
FILE "04 - Spike.wav" WAVE
TRACK 04 AUDIO
TITLE "Spike"
PERFORMER "Barry Guy & Marilyn Crispell & Paul Lytton"
INDEX 01 00:00:00
FILE "05 - Rags.wav" WAVE
TRACK 05 AUDIO
TITLE "Rags"
PERFORMER "Barry Guy & Marilyn Crispell & Paul Lytton"
INDEX 01 00:00:00
FILE "06 - Luna.wav" WAVE
TRACK 06 AUDIO
TITLE "Luna"
PERFORMER "Barry Guy & Marilyn Crispell & Paul Lytton"
INDEX 01 00:00:00
FILE "07 - Celestial.wav" WAVE
TRACK 07 AUDIO
TITLE "Celestial"
PERFORMER "Barry Guy & Marilyn Crispell & Paul Lytton"
INDEX 01 00:00:00
FILE "08 - Blade.wav" WAVE
TRACK 08 AUDIO
TITLE "Blade"
PERFORMER "Barry Guy & Marilyn Crispell & Paul Lytton"
INDEX 01 00:00:00
FILE "09 - Harmos.wav" WAVE
TRACK 09 AUDIO
TITLE "Harmos"
PERFORMER "Barry Guy & Marilyn Crispell & Paul Lytton"
INDEX 01 00:00:00
 
Лог Audiochecker
AUDIOCHECKER v2.0 beta (build 457) - by Dester - opdester@freemail.hu
~~~~~~~~~~~~~~~~~~~~~~~~~~~~~~~~~~
-=== DO NOT EDIT THIS FILE! ===-
Path: ...\barry guy marilyn crispell paul lovens - 1999 - odyssey
1 -=- 01 - Double Trouble Two.flac -=- CDDA (100%)
2 -=- 02 - Odyssey.flac -=- CDDA (100%)
3 -=- 03 - Heavy Metal.flac -=- CDDA (100%)
4 -=- 04 - Spike.flac -=- CDDA (100%)
5 -=- 05 - Rags.flac -=- CDDA (100%)
6 -=- 06 - Luna.flac -=- CDDA (100%)
7 -=- 07 - Celestial.flac -=- CDDA (99%)
8 -=- 08 - Blade.flac -=- CDDA (100%)
9 -=- 09 - Harmos.flac -=- CDDA (100%)
Summary 99,89% CDDA
89635748
 
Reviews
While bassist Barry Guy is widely known for his compositional prowess with large bands such as the London Jazz Composer's Orchestra and his own tentet, most of his work with smaller ensembles such as Iskra 1903 had been in an entirely free improv context. This trio session, with pianist Marilyn Crispell and percussionist Paul Lytton, comes as somewhat of a surprise then, given that the majority of its time is given over to composed works by Guy. Not that the pieces follow a head-solos-head format by any means. Indeed, Guy works the composed portions with the improvised ones in such a seamless manner that, except when clearly stated melodic themes appear, it's often difficult to tell whether a given section is composed or not. The results are delightful. Guy is an astonishing bassist and here ranges from prickly clusters to deep, resonant plumbings (as on the title track) that are reminiscent of Dave Holland. Crispell, by this point, had long since shed the overt Cecil Taylor influence of her earlier years and offers incisive and sympathetic playing; if anything, she seems to come out of Paul Bley but with an even more delicate touch. Lytton gets to foray into his wonderful world of clatter once in a while, but is also generally restrained here. The four short group improvisations work very well, but something really special is achieved when the free playing merges with Guy's emotional, even romantic themes as on the concluding "Harmos." When the gorgeous, heart-rending theme blossoms through the abstract introduction, the effect is stunningly beautiful. Highly recommended.
On the CD «Odyssey,» Barry Guy, Marilyn Crispell and Paul Lytton
play several of Barry Guy¹s most beautiful compositions: «Harmos,» «Double Trouble,»
and «Odyssey.» Barry Guy is a first class composer, even when we lose sight of this in face of his diverse work as an improvising bassist. In addition to works for contemporary orchestras and different chamber music ensembles (for example Kronos), he has written influential
compositions for the London Jazz Composers Orchestra or the Barry Guy New Orchestra.
In the trio, Barry Guy¹s compositional talents and his special tone colors are fully evident.
At the same time, the trio leaves space for the improvisational
highlights of the three soloists.
Пока готовил релиз наткнулся на занимательную штукенцию -
анимация по мотивам музыки Барри Гая (всем кто не видел, рекомендую)
По всем вопросам пишите личное сообщение пользователю M0p94ok.
12:01
191
Нет комментариев. Ваш будет первым!