Вы используете незарегистрированную версию компонента "Вкладки"!

Поиск

(Free Improvisation) Stefan Jaworzyn & Alan Wilkinson - In A Sentimental Mood - 1996, FLAC (tracks+.cue) lossless

(Free Improvisation) Stefan Jaworzyn & Alan Wilkinson - In A Sentimental Mood - 1996, FLAC (tracks+.cue) lossless
Треклист:
Stefan Jaworzyn & Alan Wilkinson / In A Sentimental Mood
Жанр: Free Improvisation
Страна-производитель диска: Великобритания
Год издания диска: 1996
Издатель (лейбл): Incus
Номер по каталогу: CD 25
Страна: Великобритания
Аудио кодек: FLAC (*.flac)
Тип рипа: tracks+.cue
Битрейт аудио: lossless
Продолжительность: 1:14:00
Источник (релизер): вот.сиди (pjc)
Наличие сканов в содержимом раздачи: нет
Треклист:
1 Drums Of Passion 22:11
2 My Psychotic Valentine 15:01
3 David Murray Dons A Cunning Alan Wilkinson Disguise And Blags His Way Onto A Bill At The Termite Club... 11:33
4 Excerpts From A Typical Hard Bop Blowing Session 10:49
5 Give A Man A Saxophone And He'll End Up Playing Jazz 14:23
 
Лог создания рипа
Exact Audio Copy V0.99 prebeta 5 from 4. May 2009
EAC extraction logfile from 15. April 2011, 14:21
Stefan Jaworzyn & Alan Wilkinson / In A Sentimental Mood
Used drive : HL-DT-STDVDRAM GSA-4167B Adapter: 0 ID: 0
Read mode : Secure
Utilize accurate stream : Yes
Defeat audio cache : Yes
Make use of C2 pointers : No
Read offset correction : 667
Overread into Lead-In and Lead-Out : No
Fill up missing offset samples with silence : Yes
Delete leading and trailing silent blocks : No
Null samples used in CRC calculations : Yes
Used interface : Installed external ASPI interface
Gap handling : Appended to previous track
Used output format : User Defined Encoder
Selected bitrate : 768 kBit/s
Quality : High
Add ID3 tag : No
Command line compressor : C:\Program Files\Exact Audio Copy\FLAC\FLAC.EXE
Additional command line options : -V -8 -T "artist=%a" -T "title=%t" -T "album=%g" -T "date=%y" -T "tracknumber=%n" -T "genre=%m" %s
TOC of the extracted CD
Track | Start | Length | Start sector | End sector
---------------------------------------------------------
1 | 0:00.00 | 22:16.02 | 0 | 100201
2 | 22:16.02 | 15:01.73 | 100202 | 167849
3 | 37:18.00 | 11:33.30 | 167850 | 219854
4 | 48:51.30 | 10:49.10 | 219855 | 268539
5 | 59:40.40 | 14:19.60 | 268540 | 333024
Track 1
Filename Q:\Rips\Stefan Jaworzyn + Alan Wilkinson – In A Sentimental Mood\01 - Stefan Jaworzyn & Alan Wilkinson - Drums Of Passion.wav
Pre-gap length 0:00:02.00
Peak level 94.3 %
Track quality 100.0 %
Test CRC 3DE24B2D
Copy CRC 3DE24B2D
Accurately ripped (confidence 2) [1AA4AA55]
Copy OK
Track 2
Filename Q:\Rips\Stefan Jaworzyn + Alan Wilkinson – In A Sentimental Mood\02 - Stefan Jaworzyn & Alan Wilkinson - My Psychotic Valentine.wav
Pre-gap length 0:00:05.47
Peak level 94.3 %
Track quality 100.0 %
Test CRC 4070ACC6
Copy CRC 4070ACC6
Accurately ripped (confidence 2) [A06E5AFA]
Copy OK
Track 3
Filename Q:\Rips\Stefan Jaworzyn + Alan Wilkinson – In A Sentimental Mood\03 - Stefan Jaworzyn & Alan Wilkinson - David Murray Dons A Cunning Alan Wilkinson Disguise And Blags His Way Onto A Bill At The Termite Club....wav
Pre-gap length 0:00:05.48
Peak level 94.3 %
Track quality 100.0 %
Test CRC C489B2B0
Copy CRC C489B2B0
Accurately ripped (confidence 2) [19BC1694]
Copy OK
Track 4
Filename Q:\Rips\Stefan Jaworzyn + Alan Wilkinson – In A Sentimental Mood\04 - Stefan Jaworzyn & Alan Wilkinson - Excerpts From A Typical Hard Bop Blowing Session.wav
Pre-gap length 0:00:05.48
Peak level 94.3 %
Track quality 100.0 %
Test CRC 9B2B112C
Copy CRC 9B2B112C
Accurately ripped (confidence 2) [7D8F4968]
Copy OK
Track 5
Filename Q:\Rips\Stefan Jaworzyn + Alan Wilkinson – In A Sentimental Mood\05 - Stefan Jaworzyn & Alan Wilkinson - Give A Man A Saxophone And He'll End Up Playing Jazz.wav
Pre-gap length 0:00:05.48
Peak level 94.3 %
Track quality 100.0 %
Test CRC 9CEB37D8
Copy CRC 9CEB37D8
Accurately ripped (confidence 2) [3411B4A9]
Copy OK
All tracks accurately ripped
No errors occurred
End of status report
 
Содержание индексной карты (.CUE)
REM GENRE Jazz
REM DATE 1996
REM DISCID 3C115805
REM COMMENT "ExactAudioCopy v0.99pb5"
PERFORMER "Stefan Jaworzyn & Alan Wilkinson"
TITLE "In A Sentimental Mood"
FILE "01 - Stefan Jaworzyn & Alan Wilkinson - Drums Of Passion.wav" WAVE
TRACK 01 AUDIO
TITLE "Drums Of Passion"
PERFORMER "Stefan Jaworzyn & Alan Wilkinson"
INDEX 01 00:00:00
TRACK 02 AUDIO
TITLE "My Psychotic Valentine"
PERFORMER "Stefan Jaworzyn & Alan Wilkinson"
INDEX 00 22:10:30
FILE "02 - Stefan Jaworzyn & Alan Wilkinson - My Psychotic Valentine.wav" WAVE
INDEX 01 00:00:00
TRACK 03 AUDIO
TITLE "David Murray Dons A Cunning Alan Wilkinson Disguise And Blags His Way Onto A ..."
PERFORMER "Stefan Jaworzyn & Alan Wilkinson"
INDEX 00 14:56:25
FILE "03 - Stefan Jaworzyn & Alan Wilkinson - David Murray Dons A Cunning Alan Wilkinson Disguise And Blags His Way Onto A Bill At The Termite Club....wav" WAVE
INDEX 01 00:00:00
TRACK 04 AUDIO
TITLE "Excerpts From A Typical Hard Bop Blowing Session"
PERFORMER "Stefan Jaworzyn & Alan Wilkinson"
INDEX 00 11:27:57
FILE "04 - Stefan Jaworzyn & Alan Wilkinson - Excerpts From A Typical Hard Bop Blowing Session.wav" WAVE
INDEX 01 00:00:00
TRACK 05 AUDIO
TITLE "Give A Man A Saxophone And He'll End Up Playing Jazz"
PERFORMER "Stefan Jaworzyn & Alan Wilkinson"
INDEX 00 10:43:37
FILE "05 - Stefan Jaworzyn & Alan Wilkinson - Give A Man A Saxophone And He'll End Up Playing Jazz.wav" WAVE
INDEX 01 00:00:00
 
Лог проверки качества
AUDIOCHECKER v2.0 beta (build 457) - by Dester - opdester@freemail.hu
~~~~~~~~~~~~~~~~~~~~~~~~~~~~~~~~~~
-=== DO NOT EDIT THIS FILE! ===-
Path: ...\Stefan Jaworzyn + Alan Wilkinson – In A Sentimental Mood
1 -=- 01 - Stefan Jaworzyn & Alan Wilkinson - Drums Of Passion.flac -=- CDDA (100%)
2 -=- 02 - Stefan Jaworzyn & Alan Wilkinson - My Psychotic Valentine.flac -=- CDDA (100%)
3 -=- 03 - Stefan Jaworzyn & Alan Wilkinson - David Murray Dons A Cunning Alan Wilkinson Disguise And Blags His Way Onto A Bill At The Termite Club....flac -=- CDDA (100%)
4 -=- 04 - Stefan Jaworzyn & Alan Wilkinson - Excerpts From A Typical Hard Bop Blowing Session.flac -=- CDDA (100%)
5 -=- 05 - Stefan Jaworzyn & Alan Wilkinson - Give A Man A Saxophone And He'll End Up Playing Jazz.flac -=- CDDA (100%)
Summary 100,00% CDDA
213259764
 
Состав
Stefan Jaworzyn guitar
Alan Wilkinson saxophone
Any questions -> support@pro-jazz.com. По всем вопросам пишите -> support@pro-jazz.com
12:02
151
Нет комментариев. Ваш будет первым!