Вы используете незарегистрированную версию компонента "Вкладки"!

Поиск

(Avant-Garde Jazz, Free Improvisation) Keshavan Maslak (with Sunny Murray & John Lindberg) - Loved by Millions - 2000, FLAC (tracks+.cue), lossless

Треклист:
Keshavan Maslak LOVED BY MILLIONS
Жанр: Avant-Garde Jazz, Free Improvisation
Страна-производитель диска: UK
Год издания диска: 1994
Издатель (лейбл): Leo Records
Номер по каталогу: 105
Аудио кодек: FLAC (*.flac)
Тип рипа: tracks+.cue
Битрейт аудио: lossless
Продолжительность: 456
Наличие сканов в содержимом раздачи: cover/back
Источник (релизер): nnm, thanks mishka1981
Треклист:
1. Compulsive lust
2. Lovely friends
3. Loved by millions
4. Dida
5. Bukowski in love
6. Romance in the big city
7. When you look at me, I want to vomit
8. A thrill a minute
Keshavan Maslak - saxes, flute, clarinet, vocals
John Lindberg - bass
Sunny Murray - drums
 
Лог EAC
Exact Audio Copy V1.0 beta 1 from 15. November 2010
EAC extraction logfile from 18. May 2011, 13:32
Keshavan Maslak / Loved by Millions
Used drive : Optiarc DVD RW AD-7710H Adapter: 1 ID: 0
Read mode : Secure
Utilize accurate stream : Yes
Defeat audio cache : Yes
Make use of C2 pointers : No
Read offset correction : 48
Overread into Lead-In and Lead-Out : No
Fill up missing offset samples with silence : Yes
Delete leading and trailing silent blocks : No
Null samples used in CRC calculations : Yes
Used interface : Native Win32 interface for Win NT & 2000
Gap handling : Appended to previous track
Used output format : User Defined Encoder
Selected bitrate : 896 kBit/s
Quality : High
Add ID3 tag : No
Command line compressor : C:\Program Files\Exact Audio Copy\FLAC\FLAC.EXE
Additional command line options : -8 -V -T "ARTIST=%a" -T "TITLE=%t" -T "ALBUM=%g" -T "DATE=%y" -T "TRACKNUMBER=%n" -T "GENRE=%m" -T "COMMENT=%e" %j--picture="%i"%j %s -o %d
TOC of the extracted CD
Track | Start | Length | Start sector | End sector
---------------------------------------------------------
1 | 0:00.00 | 9:20.10 | 0 | 42009
2 | 9:20.10 | 3:08.05 | 42010 | 56114
3 | 12:28.15 | 8:14.30 | 56115 | 93194
4 | 20:42.45 | 3:18.67 | 93195 | 108111
5 | 24:01.37 | 4:40.33 | 108112 | 129144
6 | 28:41.70 | 7:34.67 | 129145 | 163261
7 | 36:16.62 | 4:09.63 | 163262 | 181999
8 | 40:26.50 | 5:28.25 | 182000 | 206624
Track 1
Filename C:\MY RIPS\01 - Compulsive lust.wav
Pre-gap length 0:00:02.00
Peak level 99.9 %
Extraction speed 3.2 X
Track quality 100.0 %
Test CRC F01A8C9D
Copy CRC F01A8C9D
Accurately ripped (confidence 2) [7D52105C]
Copy OK
Track 2
Filename C:\MY RIPS\02 - Lovely friends.wav
Pre-gap length 0:00:03.00
Peak level 73.5 %
Extraction speed 3.3 X
Track quality 100.0 %
Test CRC 8AF168EB
Copy CRC 8AF168EB
Accurately ripped (confidence 2) [CE4DAD45]
Copy OK
Track 3
Filename C:\MY RIPS\03 - Loved by millions.wav
Pre-gap length 0:00:03.00
Peak level 69.2 %
Extraction speed 4.0 X
Track quality 100.0 %
Test CRC AF52D1A3
Copy CRC AF52D1A3
Accurately ripped (confidence 2) [CD1A124F]
Copy OK
Track 4
Filename C:\MY RIPS\04 - Dida.wav
Pre-gap length 0:00:05.00
Peak level 66.8 %
Extraction speed 3.1 X
Track quality 99.9 %
Test CRC 0AC22A87
Copy CRC 0AC22A87
Accurately ripped (confidence 2) [1E4C6060]
Copy OK
Track 5
Filename C:\MY RIPS\05 - Bukowski in love.wav
Pre-gap length 0:00:05.00
Peak level 67.4 %
Extraction speed 4.3 X
Track quality 100.0 %
Test CRC 9CE8C566
Copy CRC 9CE8C566
Accurately ripped (confidence 2) [F4A97B28]
Copy OK
Track 6
Filename C:\MY RIPS\06 - Romance in the big city.wav
Pre-gap length 0:00:02.00
Peak level 74.6 %
Extraction speed 4.4 X
Track quality 99.9 %
Test CRC EA8971EE
Copy CRC EA8971EE
Accurately ripped (confidence 2) [57449B29]
Copy OK
Track 7
Filename C:\MY RIPS\07 - When you look at me, I want to vomit.wav
Pre-gap length 0:00:03.00
Peak level 54.4 %
Extraction speed 4.8 X
Track quality 100.0 %
Test CRC 84CE8B92
Copy CRC 84CE8B92
Accurately ripped (confidence 2) [B602A3C4]
Copy OK
Track 8
Filename C:\MY RIPS\08 - A thrill a minute.wav
Pre-gap length 0:00:03.00
Peak level 77.0 %
Extraction speed 5.2 X
Track quality 100.0 %
Test CRC DDCC783D
Copy CRC DDCC783D
Accurately ripped (confidence 2) [DC961733]
Copy OK
All tracks accurately ripped
No errors occurred
End of status report
==== Log checksum 1D65065A9BE7A24665236D68DA71794825CFB345810FEC669696CA7E53A05B63 ====
 
Содержание индексной карты (.CUE)
REM GENRE Jazz
REM DATE 1994
REM DISCID 610AC308
REM COMMENT "ExactAudioCopy v1.0b1"
PERFORMER "Keshavan Maslak"
TITLE "Loved by Millions"
FILE "01 - Compulsive lust.wav" WAVE
TRACK 01 AUDIO
TITLE "Compulsive lust"
PERFORMER "Keshavan Maslak"
INDEX 01 00:00:00
TRACK 02 AUDIO
TITLE "Lovely friends"
PERFORMER "Keshavan Maslak"
INDEX 00 09:17:10
FILE "02 - Lovely friends.wav" WAVE
INDEX 01 00:00:00
TRACK 03 AUDIO
TITLE "Loved by millions"
PERFORMER "Keshavan Maslak"
INDEX 00 03:05:05
FILE "03 - Loved by millions.wav" WAVE
INDEX 01 00:00:00
TRACK 04 AUDIO
TITLE "Dida"
PERFORMER "Keshavan Maslak"
INDEX 00 08:09:30
FILE "04 - Dida.wav" WAVE
INDEX 01 00:00:00
TRACK 05 AUDIO
TITLE "Bukowski in love"
PERFORMER "Keshavan Maslak"
INDEX 00 03:13:67
FILE "05 - Bukowski in love.wav" WAVE
INDEX 01 00:00:00
TRACK 06 AUDIO
TITLE "Romance in the big city"
PERFORMER "Keshavan Maslak"
INDEX 00 04:38:33
FILE "06 - Romance in the big city.wav" WAVE
INDEX 01 00:00:00
TRACK 07 AUDIO
TITLE "When you look at me, I want to vomit"
PERFORMER "Keshavan Maslak"
INDEX 00 07:31:67
FILE "07 - When you look at me, I want to vomit.wav" WAVE
INDEX 01 00:00:00
TRACK 08 AUDIO
TITLE "A thrill a minute"
PERFORMER "Keshavan Maslak"
INDEX 00 04:06:63
FILE "08 - A thrill a minute.wav" WAVE
INDEX 01 00:00:00
 
Review
Recorded way back in 1980, before the trickster saxophonist Keshavan Maslak took on the moniker Kenny Millions and went completely crazy as a free jazz blower, he was a relatively sane jazz musician with a penchant for all things Beat -- as in Generation. On this date with avant drum god Sunny Murray and New York bassist John Lindberg, Millions plays us his considerable rooting in bebop, modal, and post- and hard bop bluesology. The opener is "Compulsive Lust," a blues in which Murray merely keeps a lush swing-based time in 4/4 and Lindberg vamps as Millions sings his ass off on the middle register of the horn. He's pulling out lounge and noir jazz clichés and turning them into soulful expressions of sax savvy. His tone is rich and full on the alto; his scalar knowledge is such that he could play "Cherokee" in all 12 keys; and the cat's arpeggios are in the pocket, tight and soaring. Besides the title, the first sense we get of Maslak's sense of humor is on the hard bopping "Bukowski in Love," in which he and Murray trade eights and then Lindberg counters by changing the tempo and the key. No matter, Maslak isn't caught off guard for a moment, as he digs deeper into the blues books and starts riffing on G with skeins of notes turning into dark blue ribbons, all the while quoting Sonny Rollins, Lester Young, and Eric Dolphy in perfect time. This is a gorgeous record, made when no one was paying attention to what Leo Fegin was attempting to do (do they now?) by bringing modern creative jazz into the public eye. Few people have heard this record, but if they had, they'd want to own it. All it would take is a listen to the penultimate track, a sensitive, bleating love ballad played on bass clarinet called "When You Look at Me, I Want to Vomit." 'Nuff said.
Кеннет Кешаван Маслак, выступающий также иногда под сценическим псевдонимом Кеннет Миллионс (Kenny Millions) - личность чрезвычайно разносторонняя: джазовый мультиинструменталист, поэт, мастер перфоманса, ресторатор. Родился 26 февраля 1947 года в рабочем пригороде Детройта, в семье выходцев из Украины. В пять лет начал учиться игре на мандолине, через год взялся за саксофон и кларнет. Семья его была небогатой и уже с 12 лет мальчик начал работать; окончив школу, Кеннет поступил в Университет Мичигана и получил два высших образования - по психологии и музыкальной композиции. После этого он какое-то время работал в многочисленных разъездных бэндах (touring bands) фирмы Motown; пару лет прожил в Сан-Франциско, где играл в числе прочих с Ray Anderson и David Murray, затем перебрался в Нью-Йорк (1972). Там Маслак в 70-е гг. регулярно выступал на знаменитой Кухне (The Kitchen) - экспериментальном "клубе", где частыми гостями были Rhys Chatham, Philip Glass, Laurie Anderson, John Cage. Тогда же Кешаван разработал свою концепцию музыкальных перфомансов Multiplexmulti. В 1978-ом уехал в Европу на три года, также проведенных в тесном контакте с ведущими местными авант-джазовыми музыкантами. В тот же период сформировал группу Loved by Millions (и впервые использовал псевдоним Kenny Millions), игравшую смесь панк-рока и фри-джаза. После чего еще некоторое время провел в Японии, пока наконец в 1987 не осел во Флориде, где вместе с супругой открыл несколько ресторанов. Российскому слушателю Маслак известен тем прежде всего тем, что еще в перестроечную пору неоднократно приезжал в СССР на различные фестивали, своим сотрудничеством с Сергеем Курехиным и альбомом "Mother Russia". Всего за карьеру Кешаван Маслак записал более 60 дисков.
По всем вопросам пишите личное сообщение пользователю M0p94ok.
12:00
159
Нет комментариев. Ваш будет первым!