Поиск

(Avant-Garde Jazz, Free Jazz, Hard Bop) John Coltrane - Sun Ship - 1965, APE (image+.cue), lossless

(Avant-Garde Jazz, Free Jazz, Hard Bop) John Coltrane - Sun Ship - 1965, APE (image+.cue), lossless
Треклист:
John Coltrane - Sun Ship
Жанр: Avant-Garde Jazz, Free Jazz, Hard Bop
Страна-производитель диска: США
Год издания диска: 1995
Издатель (лейбл): Impulse!
Номер по каталогу: IMPD-167
Аудиокодек: APE
Тип рипа: image+.cue
Битрейт аудио: lossless
Продолжительность: 42:30
Источник (релизер): Mazeppa (hqshare)
Наличие сканов в содержимом раздачи: да
Треклист:
01. Sun Ship (Coltrane) - 6:14
02. Dearly Beloved (Coltrane) - 6:28
03. Amen (Coltrane) - 8:16
04. Attaining (Coltrane) - 11:27
05. Ascent (Coltrane) - 10:05
Состав:
John Coltrane - tenor saxophone
McCoy Tyner - piano
Jimmy Garrison - bass
Elvin Jones - drums
Recorded at RCA Studios, New York on August 26, 1965.
 
Лог создания рипа
EAC extraction logfile from 14. April 2007, 11:39 for CD
John Coltrane / Sun Ship
Used drive : LITE-ON CD-ROM LTN-527T Adapter: 1 ID: 1
Read mode : Secure with NO C2, accurate stream, disable cache
Read offset correction : 12
Overread into Lead-In and Lead-Out : Yes
Used output format : C:\Program Files\Monkey's Audio\MAC.exe (Monkey's Audio Lossless Encoder)
High Lossless Compression
Other options :
Fill up missing offset samples with silence : Yes
Delete leading and trailing silent blocks : No
Installed external ASPI interface
Range status and errors
Selected range
Filename F:\Win-Rar\John Coltrane - Sun Ship\John Coltrane - Sun Ship.wav.wav
Peak level 98.5 %
Range quality 100.0 %
CRC 0F6CDBAB
Copy OK
No errors occured
End of status report
 
Содержание индексной карты (.CUE)
REM GENRE Jazz
REM DATE 1965
REM DISCID 4709F605
REM COMMENT "ExactAudioCopy v0.95b4"
PERFORMER "John Coltrane"
TITLE "Sun Ship"
FILE "John Coltrane - Sun Ship.wav" WAVE
TRACK 01 AUDIO
TITLE "Sun Ship"
PERFORMER "John Coltrane"
INDEX 01 00:00:00
TRACK 02 AUDIO
TITLE "Dearly Beloved"
PERFORMER "John Coltrane"
INDEX 00 06:12:22
INDEX 01 06:13:40
TRACK 03 AUDIO
TITLE "Amen"
PERFORMER "John Coltrane"
INDEX 00 12:39:70
INDEX 01 12:41:12
TRACK 04 AUDIO
TITLE "Attaining"
PERFORMER "John Coltrane"
INDEX 00 20:55:55
INDEX 01 20:57:47
TRACK 05 AUDIO
TITLE "Ascent"
PERFORMER "John Coltrane"
INDEX 00 32:22:40
INDEX 01 32:25:07
 
Отчет CUETools
[CUETools log; Date: 04.06.2013 2:26:50; Version: 2.1.4]
[CTDB TOCID: 0qbHsomemhc9DLZAf27nOYzmJjY-] found.
Track | CTDB Status
1 | (5/5) Accurately ripped
2 | (5/5) Accurately ripped
3 | (5/5) Accurately ripped
4 | (5/5) Accurately ripped
5 | (5/5) Accurately ripped
[AccurateRip ID: 0007e1db-0025ddac-4709f605] found.
Track [ CRC | V2 ] Status
01 [191e27c8|26953afb] (21+02/23) Accurately ripped
02 [ec48f45f|afe77ad4] (21+00/21) Accurately ripped
03 [0f7fb44a|b94273c7] (21+00/21) Accurately ripped
04 [1bede6ea|099559fa] (20+00/20) Accurately ripped
05 [5a1386ec|4fac04af] (22+00/22) Accurately ripped
Track Peak [ CRC32 ] [W/O NULL] [ LOG ]
-- 98,5 [0F6CDBAB] [FB528BFA] CRC32
01 98,5 [3D7B7190] [9C0B8C7D]
02 93,8 [D740DD19] [B3EFE4EA]
03 92,0 [7383E6BF] [DADA311C]
04 91,7 [4D7CCF14] [8D75FC8B]
05 89,2 [1E880185] [EA79A2DC]
 
Review by Scott Yanow
Other than First Meditations, which was not released at the time, Sun Ship (reissued on CD by Impulse) was the final studio album by John Coltrane's classic quartet (with pianist McCoy Tyner, bassist Jimmy Garrison, and drummer Elvin Jones) before Pharoah Sanders joined the band on second tenor. At this point in time, Coltrane was using very short repetitive themes as jumping-off points for explosive improvisations, often centered around one chord and a very specific spiritual mood. Tyner sounds a bit conservative in comparison, but Jones keeps up with Trane's fire (especially on "Amen"). Even in the most intense sections (and much of this music is atonal), there is a logic and thoughtfulness about Coltrane's playing.
Приватный:
Нет (DHT включён)
Размер:
285.10 Мб (298,947,377 байт) » файлов: 23
Участники:
0 раздают, 0 качают (0 участников всего)
Внешние участники:
2 раздают, 1 качают (3 участников всего) [ Обновить ]
No seeders - write a personal message to user M0p94ok. Нет сидеров - пишите личное сообщение пользователю M0p94ok.
03:51
49
Нет комментариев. Ваш будет первым!