Поиск

(free jazzб e2e) Lotte Anker, Sylvie Courvoisier, Ikue Mori - Alien Huddle - 2008, FLAC (tracks+.cue), lossless

Треклист:
Lotte Anker, Sylvie Courvoisier, Ikue Mori - Alien Huddle
Жанр: free jazz, electronic
Год выпуска диска: 2008
Аудио кодек: FLAC
Тип рипа: tracks+.cue
Битрейт аудио: lossless
Трэклист:
1. Morning Dove
2. Woodpecker Pecks
3. Sparkling Sparrows
4. Night Owl
5. Robins Quarrel
6. Dancing Rooster Comp
7. Whistling Swan
8. Crow And Raven
9. Blackbird
10. Ostrich War
11. Great White Heron
Доп. информация:
Lotte Anker: soprano sax, alto sax, tenor sax
Sylvie Courvoisier: piano
Ikue Mori: electronics
Label: Intakt
 
EAC log
Exact Audio Copy V0.99 prebeta 4 from 23. January 2008
EAC extraction logfile from 21. September 2008, 1:11
Lotte Anker/Sylvie Courvoisier/Ikue Mori / Alien Huddle
Used drive : Optiarc DVD RW AD-7173A Adapter: 1 ID: 0
Read mode : Secure
Utilize accurate stream : Yes
Defeat audio cache : Yes
Make use of C2 pointers : No
Read offset correction : 48
Overread into Lead-In and Lead-Out : No
Fill up missing offset samples with silence : Yes
Delete leading and trailing silent blocks : No
Null samples used in CRC calculations : Yes
Used interface : Native Win32 interface for Win NT & 2000
Gap handling : Appended to previous track
Used output format : User Defined Encoder
Selected bitrate : 224 kBit/s
Quality : High
Add ID3 tag : No
Command line compressor : C:\Program Files\Exact Audio Copy\Flac\flac.exe
Additional command line options : -V -8 -T "artist=%a" -T "title=%t" -T "album=%g" -T "date=%y" -T "tracknumber=%n" -T "genre=%m" %s
TOC of the extracted CD
Track | Start | Length | Start sector | End sector
---------------------------------------------------------
1 | 0:00.00 | 4:17.66 | 0 | 19340
2 | 4:17.66 | 3:58.41 | 19341 | 37231
3 | 8:16.32 | 5:09.17 | 37232 | 60423
4 | 13:25.49 | 5:32.49 | 60424 | 85372
5 | 18:58.23 | 3:46.60 | 85373 | 102382
6 | 22:45.08 | 4:53.18 | 102383 | 124375
7 | 27:38.26 | 4:09.47 | 124376 | 143097
8 | 31:47.73 | 1:58.12 | 143098 | 151959
9 | 33:46.10 | 5:16.26 | 151960 | 175685
10 | 39:02.36 | 3:51.66 | 175686 | 193076
11 | 42:54.27 | 4:15.40 | 193077 | 212241
Track 1
Filename Z:\Anker,Courvoisier,Mori--Alien Huddle\01-Morning Dove.wav
Pre-gap length 0:00:02.00
Peak level 97.7 %
Track quality 100.0 %
Test CRC AD47907B
Copy CRC AD47907B
Track not present in AccurateRip database
Copy OK
Track 2
Filename Z:\Anker,Courvoisier,Mori--Alien Huddle\02-Woodpecker Peeks.wav
Peak level 97.7 %
Track quality 100.0 %
Test CRC A41A8599
Copy CRC A41A8599
Track not present in AccurateRip database
Copy OK
Track 3
Filename Z:\Anker,Courvoisier,Mori--Alien Huddle\03-Sparkling Sparrows.wav
Peak level 92.1 %
Track quality 100.0 %
Test CRC BDBA8433
Copy CRC BDBA8433
Track not present in AccurateRip database
Copy OK
Track 4
Filename Z:\Anker,Courvoisier,Mori--Alien Huddle\04-Night Owl.wav
Peak level 97.7 %
Track quality 100.0 %
Test CRC 29EC4449
Copy CRC 29EC4449
Track not present in AccurateRip database
Copy OK
Track 5
Filename Z:\Anker,Courvoisier,Mori--Alien Huddle\05-Robins Quarrel.wav
Pre-gap length 0:00:01.69
Peak level 97.7 %
Track quality 99.9 %
Test CRC 28B59256
Copy CRC 28B59256
Track not present in AccurateRip database
Copy OK
Track 6
Filename Z:\Anker,Courvoisier,Mori--Alien Huddle\06-Dancing Rooster Comp.wav
Pre-gap length 0:00:01.37
Peak level 97.7 %
Track quality 99.9 %
Test CRC B527B40E
Copy CRC B527B40E
Track not present in AccurateRip database
Copy OK
Track 7
Filename Z:\Anker,Courvoisier,Mori--Alien Huddle\07-Whistling Swan.wav
Pre-gap length 0:00:01.89
Peak level 97.7 %
Track quality 100.0 %
Test CRC 533F9455
Copy CRC 533F9455
Track not present in AccurateRip database
Copy OK
Track 8
Filename Z:\Anker,Courvoisier,Mori--Alien Huddle\08-Crow and Raven.wav
Peak level 97.7 %
Track quality 100.0 %
Test CRC 0AA2A75B
Copy CRC 0AA2A75B
Track not present in AccurateRip database
Copy OK
Track 9
Filename Z:\Anker,Courvoisier,Mori--Alien Huddle\09-Blackbird.wav
Pre-gap length 0:00:01.93
Peak level 97.7 %
Track quality 100.0 %
Test CRC F0A82C79
Copy CRC F0A82C79
Track not present in AccurateRip database
Copy OK
Track 10
Filename Z:\Anker,Courvoisier,Mori--Alien Huddle\10-Ostrich War.wav
Peak level 97.7 %
Track quality 100.0 %
Test CRC 60764570
Copy CRC 60764570
Track not present in AccurateRip database
Copy OK
Track 11
Filename Z:\Anker,Courvoisier,Mori--Alien Huddle\11-Great White Heron.wav
Pre-gap length 0:00:01.29
Peak level 97.7 %
Track quality 100.0 %
Test CRC 0A5A88A5
Copy CRC 0A5A88A5
Track not present in AccurateRip database
Copy OK
None of the tracks are present in the AccurateRip database
No errors occurred
End of status report
Не мой рип
Приватный:
Нет (DHT включён)
Размер:
264.29 Мб (277,131,322 байт) » файлов: 14
Участники:
0 раздают, 0 качают (0 участников всего)
Внешние участники:
3 раздают, 1 качают (4 участников всего) [ Обновить ]
No seeders - write a personal message to user M0p94ok. Нет сидеров - пишите личное сообщение пользователю M0p94ok.
03:52
60
Нет комментариев. Ваш будет первым!