Поиск

(Jazz) Uri Caine - Shelf-Life - 2005, FLAC (image+.cue), lossless

(Jazz) Uri Caine - Shelf-Life - 2005, FLAC (image+.cue), lossless
Треклист:
Uri Caine - Shelf-Life
Жанр: Jazz
Год выпуска диска: 2005
Производитель диска: Germany (Winter & Winter)
Аудио кодек: FLAC
Тип рипа: image+.cue
Битрейт аудио: lossless
Продолжительность: 1:10:13
Uri Caine keyboards
Zach Danziger drums and percussion
Tim Lefebvre bass, guitar
Special Guests:
Ralph Alessi trumpet
Bootsie Barnes saxophone
Ruben Gutierrez clarinet
DJ Olive electronic
Bunny Sigler vocals
Arto Tunçboyaciyan percussion
Barbara Walker vocals
Dan Zank string programming
SteakJacket Prelude
SteakJacket
Defenestration
Wolfowitz in sheep's clothing
Blakey
On the shelf
Darker bionic cue
Strom's Theremin
Oder
Murray
bE 100se
Watch out!
Bauweltklogge
Shish Kabab Franklin
Interrruptus
Hello
Sweat
 
EAC Report
Exact Audio Copy V0.99 prebeta 4 from 23. January 2008
EAC extraction logfile from 17. September 2008, 23:32
Uri Caine / Shelf-Life
Used drive : TSSTcorpCD/DVDW SH-S182M Adapter: 2 ID: 1
Read mode : Secure
Utilize accurate stream : Yes
Defeat audio cache : Yes
Make use of C2 pointers : No
Read offset correction : 6
Overread into Lead-In and Lead-Out : No
Fill up missing offset samples with silence : Yes
Delete leading and trailing silent blocks : No
Null samples used in CRC calculations : No
Used interface : Installed external ASPI interface
Used output format : User Defined Encoder
Selected bitrate : 1024 kBit/s
Quality : High
Add ID3 tag : No
Command line compressor : C:\Program Files\Exact Audio Copy\FLAC\FLAC.EXE
Additional command line options : -6 -V -T "ARTIST=%a" -T "TITLE=%t" -T "ALBUM=%g" -T "DATE=%y" -T "TRACKNUMBER=%n" -T "GENRE=%m" -T "COMMENT=%e" %s -o %d
TOC of the extracted CD
Track | Start | Length | Start sector | End sector
---------------------------------------------------------
1 | 0:00.00 | 3:56.03 | 0 | 17702
2 | 3:56.03 | 3:17.39 | 17703 | 32516
3 | 7:13.42 | 4:20.44 | 32517 | 52060
4 | 11:34.11 | 5:21.68 | 52061 | 76203
5 | 16:56.04 | 3:40.59 | 76204 | 92762
6 | 20:36.63 | 3:27.14 | 92763 | 108301
7 | 24:04.02 | 2:59.39 | 108302 | 121765
8 | 27:03.41 | 5:19.74 | 121766 | 145764
9 | 32:23.40 | 5:04.01 | 145765 | 168565
10 | 37:27.41 | 3:30.58 | 168566 | 184373
11 | 40:58.24 | 2:14.57 | 184374 | 194480
12 | 43:13.06 | 2:23.31 | 194481 | 205236
13 | 45:36.37 | 4:56.54 | 205237 | 227490
14 | 50:33.16 | 4:45.46 | 227491 | 248911
15 | 55:18.62 | 5:53.74 | 248912 | 275460
16 | 61:12.61 | 3:59.46 | 275461 | 293431
17 | 65:12.32 | 5:00.14 | 293432 | 315945
Range status and errors
Selected range
Filename C:\z\Uri Caine - Shelf-Life.wav
Peak level 95.8 %
Range quality 100.0 %
Copy CRC 6108D772
Copy OK
No errors occurred
AccurateRip summary
Track 1 accurately ripped (confidence 2) [8CD5F7A1]
Track 2 accurately ripped (confidence 2) [FEB56C6B]
Track 3 accurately ripped (confidence 2) [AB075757]
Track 4 accurately ripped (confidence 2) [BA319EA5]
Track 5 accurately ripped (confidence 2) [4630E8E3]
Track 6 accurately ripped (confidence 2) [9E183A37]
Track 7 accurately ripped (confidence 2) [D60FD255]
Track 8 accurately ripped (confidence 2) [258D2571]
Track 9 accurately ripped (confidence 2) [F9565700]
Track 10 accurately ripped (confidence 2) [C7D1CAE5]
Track 11 accurately ripped (confidence 2) [1738ABD7]
Track 12 accurately ripped (confidence 2) [5949F09D]
Track 13 accurately ripped (confidence 2) [CBD1A3A4]
Track 14 accurately ripped (confidence 2) [42C1FF5F]
Track 15 accurately ripped (confidence 2) [7B28E63F]
Track 16 accurately ripped (confidence 2) [A883A655]
Track 17 accurately ripped (confidence 2) [D5A3DED0]
All tracks accurately ripped
End of status report
Приватный:
Нет (DHT включён)
Размер:
470.85 Мб (493,721,518 байт) » файлов: 5
Участники:
0 раздают, 0 качают (0 участников всего)
Внешние участники:
1 раздают, 0 качают (1 участников всего) [ Обновить ]
No seeders - write a personal message to user M0p94ok. Нет сидеров - пишите личное сообщение пользователю M0p94ok.
03:51
58
Нет комментариев. Ваш будет первым!