Вы используете незарегистрированную версию компонента "Вкладки"!

Поиск

(Avant-Garde Jazz, Free Jazz) [CD] Lisle Ellis (w/ Glenn Spearman, Larry Ochs, Joe McPhee a.o.) - Elevations - 1994, FLAC (tracks+.cue), lossless

(Avant-Garde Jazz, Free Jazz) [CD] Lisle Ellis (w/ Glenn Spearman, Larry Ochs, Joe McPhee a.o.) - Elevations - 1994, FLAC (tracks+.cue), lossless
Треклист:
Lisle Ellis / Elevations
Жанр: Avant-Garde Jazz, Free Jazz
Носитель: CD
Страна-производитель диска: Canada
Год издания: 1994
Издатель (лейбл): Les Disques Victo
Номер по каталогу: VICTOcd027
Страна: Canada
Аудиокодек: FLAC (*.flac)
Тип рипа: tracks+.cue
Битрейт аудио: lossless
Продолжительность: 61:18
Источник (релизер): свой фирменный диск
Наличие сканов в содержимом раздачи:
Треклист:
1. Ground (Take 1) 12:07
2. Lacuna (Dedicated To Jimmy Lyons) 6:01
3. Life Cycle 5:15
4. Reach 3:54
5. P.B's Parable 4:28
6. Arc 2:47
7. Mothers 6:05
8. Re: Call 8:23
9. Ground (Take 2) 12:08
 
Лог создания рипа
Exact Audio Copy V1.0 beta 3 from 29. August 2011
EAC extraction logfile from 22. March 2014, 10:09
Lisle Ellis / Elevations
Used drive : PIONEER DVD-RW DVR-115D Adapter: 0 ID: 0
Read mode : Secure
Utilize accurate stream : Yes
Defeat audio cache : Yes
Make use of C2 pointers : No
Read offset correction : 48
Overread into Lead-In and Lead-Out : No
Fill up missing offset samples with silence : Yes
Delete leading and trailing silent blocks : No
Null samples used in CRC calculations : Yes
Used interface : Installed external ASPI interface
Gap handling : Appended to previous track
Used output format : User Defined Encoder
Selected bitrate : 896 kBit/s
Quality : High
Add ID3 tag : No
Command line compressor : C:\Program Files\Exact Audio Copy\FLAC\FLAC.EXE
Additional command line options : -6 -V -T "ARTIST=%artist%" -T "TITLE=%title%" -T "ALBUM=%albumtitle%" -T "DATE=%year%" -T "TRACKNUMBER=%tracknr%" -T "GENRE=%genre%" -T "COMMENT=%comment%" -T "BAND=%albuminterpret%" -T "COMPOSER=%composer%" %haslyrics%--tag-from-file=LYRICS="%lyricsfile%"%haslyrics% -T "DISCNUMBER=%cdnumber%" -T "TOTALDISCS=%totalcds%" -T "TOTALTRACKS=%numtracks%" %hascover%--picture="%coverfile%"%hascover% %source% -o %dest%
TOC of the extracted CD
Track | Start | Length | Start sector | End sector
---------------------------------------------------------
1 | 0:00.32 | 12:08.13 | 32 | 54644
2 | 12:08.45 | 6:02.42 | 54645 | 81836
3 | 18:11.12 | 5:16.30 | 81837 | 105566
4 | 23:27.42 | 3:56.10 | 105567 | 123276
5 | 27:23.52 | 4:29.70 | 123277 | 143521
6 | 31:53.47 | 2:49.13 | 143522 | 156209
7 | 34:42.60 | 6:05.37 | 156210 | 183621
8 | 40:48.22 | 8:24.58 | 183622 | 221479
9 | 49:13.05 | 12:06.12 | 221480 | 275941
Track 1
Filename D:\zzz\01 - Ground (Take 1).wav
Pre-gap length 0:00:02.32
Peak level 71.6 %
Extraction speed 5.5 X
Track quality 100.0 %
Test CRC 8B48E924
Copy CRC 8B48E924
Accurately ripped (confidence 1) [C285FE1C] (AR v1)
Copy OK
Track 2
Filename D:\zzz\02 - Lacuna - Dedicated To Jimmy Lyons.wav
Pre-gap length 0:00:00.53
Peak level 68.8 %
Extraction speed 5.7 X
Track quality 99.9 %
Test CRC F0300EA8
Copy CRC F0300EA8
Accurately ripped (confidence 1) [5412AC80] (AR v1)
Copy OK
Track 3
Filename D:\zzz\03 - Life Cycle.wav
Pre-gap length 0:00:00.67
Peak level 49.5 %
Extraction speed 6.0 X
Track quality 99.9 %
Test CRC 1E382DFA
Copy CRC 1E382DFA
Accurately ripped (confidence 1) [AD457114] (AR v1)
Copy OK
Track 4
Filename D:\zzz\04 - Reach.wav
Pre-gap length 0:00:00.47
Peak level 50.2 %
Extraction speed 6.6 X
Track quality 100.0 %
Test CRC B221E8E5
Copy CRC B221E8E5
Accurately ripped (confidence 1) [4DA02FF5] (AR v1)
Copy OK
Track 5
Filename D:\zzz\05 - P.B´s Parable.wav
Pre-gap length 0:00:01.30
Peak level 76.2 %
Extraction speed 6.3 X
Track quality 99.9 %
Test CRC 6D7FDB7D
Copy CRC 6D7FDB7D
Accurately ripped (confidence 1) [AE968B50] (AR v1)
Copy OK
Track 6
Filename D:\zzz\06 - Arc.wav
Pre-gap length 0:00:01.42
Peak level 60.0 %
Extraction speed 6.8 X
Track quality 100.0 %
Test CRC 4DE9213C
Copy CRC 4DE9213C
Accurately ripped (confidence 1) [2DCDA270] (AR v1)
Copy OK
Track 7
Filename D:\zzz\07 - Mothers.wav
Pre-gap length 0:00:01.33
Peak level 62.9 %
Extraction speed 7.9 X
Track quality 100.0 %
Test CRC 32A7084F
Copy CRC 32A7084F
Accurately ripped (confidence 1) [E5F675C6] (AR v1)
Copy OK
Track 8
Filename D:\zzz\08 - Re- Call.wav
Pre-gap length 0:00:00.42
Peak level 57.0 %
Extraction speed 8.5 X
Track quality 100.0 %
Test CRC D6CEA8EB
Copy CRC D6CEA8EB
Accurately ripped (confidence 1) [AD866EEC] (AR v1)
Copy OK
Track 9
Filename D:\zzz\09 - Ground (Take 2).wav
Pre-gap length 0:00:00.45
Peak level 86.6 %
Extraction speed 9.2 X
Track quality 100.0 %
Test CRC 31279CF5
Copy CRC 31279CF5
Accurately ripped (confidence 1) [D31092B4] (AR v1)
Copy OK
All tracks accurately ripped
No errors occurred
End of status report
==== Log checksum ED652C0F38D46924ECFE461C67B40A65C10B507FBC8039F7122F924D4429112A ====
 
Содержание индексной карты (.CUE)
REM GENRE "Avant-Garde Jazz"
REM DATE 1994
REM DISCID 750E5F09
REM COMMENT "ExactAudioCopy v1.0b3"
PERFORMER "Lisle Ellis"
TITLE "Elevations"
FILE "01 - Ground (Take 1).wav" WAVE
TRACK 01 AUDIO
TITLE "Ground (Take 1)"
PERFORMER "Lisle Ellis"
PREGAP 00:00:32
INDEX 01 00:00:00
TRACK 02 AUDIO
TITLE "Lacuna - Dedicated To Jimmy Lyons"
PERFORMER "Lisle Ellis"
INDEX 00 12:07:35
FILE "02 - Lacuna - Dedicated To Jimmy Lyons.wav" WAVE
INDEX 01 00:00:00
TRACK 03 AUDIO
TITLE "Life Cycle"
PERFORMER "Lisle Ellis"
INDEX 00 06:01:50
FILE "03 - Life Cycle.wav" WAVE
INDEX 01 00:00:00
TRACK 04 AUDIO
TITLE "Reach"
PERFORMER "Lisle Ellis"
INDEX 00 05:15:58
FILE "04 - Reach.wav" WAVE
INDEX 01 00:00:00
TRACK 05 AUDIO
TITLE "P.B.s Parable"
PERFORMER "Lisle Ellis"
INDEX 00 03:54:55
FILE "05 - P.B.s Parable.wav" WAVE
INDEX 01 00:00:00
TRACK 06 AUDIO
TITLE "Arc"
PERFORMER "Lisle Ellis"
INDEX 00 04:28:28
FILE "06 - Arc.wav" WAVE
INDEX 01 00:00:00
TRACK 07 AUDIO
TITLE "Mothers"
PERFORMER "Lisle Ellis"
INDEX 00 02:47:55
FILE "07 - Mothers.wav" WAVE
INDEX 01 00:00:00
TRACK 08 AUDIO
TITLE "Re: Call"
PERFORMER "Lisle Ellis"
INDEX 00 06:04:70
FILE "08 - Re- Call.wav" WAVE
INDEX 01 00:00:00
TRACK 09 AUDIO
TITLE "Ground (Take 2)"
PERFORMER "Lisle Ellis"
INDEX 00 08:24:13
FILE "09 - Ground (Take 2).wav" WAVE
INDEX 01 00:00:00
 
Лог проверки качества
d:\>d:\aucdtect -d/-m0 d:\zzz\*.wav
auCDtect: CD records authenticity detector, version 0.8.2
Copyright (c) 2004 Oleg Berngardt. All rights reserved.
Copyright (c) 2004 Alexander Djourik. All rights reserved.
------------------------------------------------------------
Processing file: [01. Ground (Take 1).wav]
------------------------------------------------------------
This track looks like CDDA with probability 100%
------------------------------------------------------------
Processing file: [02. Lacuna - Dedicated To Jimmy Lyons.wav]
------------------------------------------------------------
This track looks like CDDA with probability 100%
------------------------------------------------------------
Processing file: [03. Life Cycle.wav]
------------------------------------------------------------
This track looks like CDDA with probability 100%
------------------------------------------------------------
Processing file: [04. Reach.wav]
------------------------------------------------------------
This track looks like CDDA with probability 100%
------------------------------------------------------------
Processing file: [05. P.Bs Parable.wav]
------------------------------------------------------------
This track looks like CDDA with probability 100%
------------------------------------------------------------
Processing file: [06. Arc.wav]
------------------------------------------------------------
This track looks like CDDA with probability 100%
------------------------------------------------------------
Processing file: [07. Mothers.wav]
------------------------------------------------------------
This track looks like CDDA with probability 100%
------------------------------------------------------------
Processing file: [08. Re- Call.wav]
------------------------------------------------------------
This track looks like CDDA with probability 100%
------------------------------------------------------------
Processing file: [09. Ground (Take 2).wav]
------------------------------------------------------------
This track looks like CDDA with probability 100%
------------------------------------------------------------
Final Conclusion:
------------------------------------------------------------
These tracks looks like CDDA with probability 100%
Доп. информация:
 
Album Info & AMG Review
(Lisle Ellis) - 1,2,3,5,8,9
(Ellis, McPhee, Cauley, Robinson) - 4,6
(Albert Ayler) - 7
Enregistre au Studio Mobius Music a San Francisco, en juin 1993, par Oliver Di Cicco, assiste de Christian Jones
Mixage: Larry Ochs, Don Paul
Montage: Oliver Di Cicco
Photos: Claudio Moure
Producteur de l'enregistrement: Don Paul
Graphisme: Francois Bienvenue
Assistantes a la production: Isabelle Gelinas, Joanne Vezina
Producteur delegue: Michel Levasseur (Productions Plateforme Inc.)
Liner notes: Art Lange, March 1994
Elevations is one of the very rare albums on which bassist Lisle Ellis assumes leadership. It was recorded in a San Francisco studio in June 1993. At the core of the instrumentation is Ellis' quartet, which includes Christopher Cauley and Joe McPhee on saxophones and Donald Robinson on drums (this quartet is featured on the two free improvisations of the album, "Arc" and "Reach"). James Ruthier (electric guitar) and saxophonists Glenn Spearman and Larry Ochs guest on many tracks, augmenting the group to a septet for "Life Cycle," "P.B.'s Parable," and a spirited take on Albert Ayler's "Mothers." This line of fine blowers makes up for Ellis' average compositional skills. His pieces fall into the free jazz realm, going beyond the simple head-solo-head form, but still very anchored in the 1960s tradition. His playing has been mixed up front, something unusual for any jazz album, especially since it is not stellar; those who have some problems with his sloppy playing will find the introduction to "Ground" quite difficult to listen to. If originality is not the key on Elevations, at least the heart and the energy are there. The best moment happens in "Re: Call," when the bassist brings the piece down to a murmur -- very well executed. This album is more accessible and listener-friendly than most of the material he has recorded as Paul Plimley's sideman.
 
Состав
Christopher Cauley: alto saxophone (1,2,3,4,5,6,8,9)
James Ruthier: guitare electrique (3,5,8)
Glenn Spearman: tenor saxophone (1,2,3,5,7,8,9)
Larry Ochs: sopranino et tenor saxophones (1,2,3,5,8,9)
Donald Robinson: batterie
Joe McPhee: soprano (1,2,3,5,8,9) et tenor (7) saxophones, trombone (4,6)
Lisle Ellis: contrebasse
По всем вопросам пишите личное сообщение пользователю M0p94ok.
01:19
165
Нет комментариев. Ваш будет первым!