Поиск

(Free Jazz, Contemporary Jazz) [CD] The Peggy Lee Band (w/ Tony Wilson, Chris Tarry, Dylan Van Der Schyff a.o.) - The Peggy Lee Band - 1999, FLAC (tracks+.cue), lossless

(Free Jazz, Contemporary Jazz) [CD] The Peggy Lee Band (w/ Tony Wilson, Chris Tarry, Dylan Van Der Schyff a.o.) - The Peggy Lee Band - 1999, FLAC (tracks+.cue), lossless
The Peggy Lee Band / The Peggy Lee Band
Жанр: Free Jazz, Contemporary Jazz
Носитель: CD
Страна-производитель диска: Canada
Год издания: 1999
Издатель (лейбл): Spool
Номер по каталогу: SPL 105 / LINE 5
Страна: Canada
Аудиокодек: FLAC (*.flac)
Тип рипа: tracks+.cue
Битрейт аудио: lossless
Продолжительность: 62:35
Источник (релизер): свой фирменный диск
Наличие сканов в содержимом раздачи:
Треклист:
1. Message To Little Shoe 4:30
2. Two Stories 7:42
3. Monkey Puzzle 5:35
4. Fossil 8:10
5. Long Beach 6:03
6. Big Top 9:45
7. Under The Dock 11:10
8. Lullabye 2:20
9. Walk Home 6:37
 
Лог создания рипа
Exact Audio Copy V1.0 beta 3 from 29. August 2011
EAC extraction logfile from 22. March 2014, 21:00
The Peggy Lee Band / The Peggy Lee Band
Used drive : PIONEER DVD-RW DVR-115D Adapter: 0 ID: 0
Read mode : Secure
Utilize accurate stream : Yes
Defeat audio cache : Yes
Make use of C2 pointers : No
Read offset correction : 48
Overread into Lead-In and Lead-Out : No
Fill up missing offset samples with silence : Yes
Delete leading and trailing silent blocks : No
Null samples used in CRC calculations : Yes
Used interface : Installed external ASPI interface
Gap handling : Appended to previous track
Used output format : User Defined Encoder
Selected bitrate : 896 kBit/s
Quality : High
Add ID3 tag : No
Command line compressor : C:\Program Files\Exact Audio Copy\FLAC\FLAC.EXE
Additional command line options : -6 -V -T "ARTIST=%artist%" -T "TITLE=%title%" -T "ALBUM=%albumtitle%" -T "DATE=%year%" -T "TRACKNUMBER=%tracknr%" -T "GENRE=%genre%" -T "COMMENT=%comment%" -T "BAND=%albuminterpret%" -T "COMPOSER=%composer%" %haslyrics%--tag-from-file=LYRICS="%lyricsfile%"%haslyrics% -T "DISCNUMBER=%cdnumber%" -T "TOTALDISCS=%totalcds%" -T "TOTALTRACKS=%numtracks%" %hascover%--picture="%coverfile%"%hascover% %source% -o %dest%
TOC of the extracted CD
Track | Start | Length | Start sector | End sector
---------------------------------------------------------
1 | 0:00.00 | 4:36.07 | 0 | 20706
2 | 4:36.07 | 7:46.45 | 20707 | 55701
3 | 12:22.52 | 5:40.04 | 55702 | 81205
4 | 18:02.56 | 8:13.58 | 81206 | 118238
5 | 26:16.39 | 6:08.23 | 118239 | 145861
6 | 32:24.62 | 9:51.05 | 145862 | 190191
7 | 42:15.67 | 11:15.39 | 190192 | 240855
8 | 53:31.31 | 2:24.61 | 240856 | 251716
9 | 55:56.17 | 6:39.33 | 251717 | 281674
Track 1
Filename D:\zzz\01 - Message To Little Shoe.wav
Pre-gap length 0:00:02.00
Peak level 87.3 %
Extraction speed 4.4 X
Track quality 100.0 %
Test CRC 299B6BCF
Copy CRC 299B6BCF
Accurately ripped (confidence 2) [4AB2629F] (AR v1)
Copy OK
Track 2
Filename D:\zzz\02 - Two Stories.wav
Pre-gap length 0:00:02.00
Peak level 99.1 %
Extraction speed 5.3 X
Track quality 100.0 %
Test CRC CC29556C
Copy CRC CC29556C
Accurately ripped (confidence 2) [57AAC8C5] (AR v1)
Copy OK
Track 3
Filename D:\zzz\03 - Monkey Puzzle.wav
Pre-gap length 0:00:02.00
Peak level 98.4 %
Extraction speed 5.8 X
Track quality 100.0 %
Test CRC 1BD55272
Copy CRC 1BD55272
Accurately ripped (confidence 2) [0960B1B7] (AR v1)
Copy OK
Track 4
Filename D:\zzz\04 - Fossil.wav
Pre-gap length 0:00:02.00
Peak level 98.7 %
Extraction speed 6.5 X
Track quality 100.0 %
Test CRC CA661CF2
Copy CRC CA661CF2
Accurately ripped (confidence 2) [E7E56EC2] (AR v1)
Copy OK
Track 5
Filename D:\zzz\05 - Long Beach.wav
Pre-gap length 0:00:02.00
Peak level 98.4 %
Extraction speed 6.8 X
Track quality 100.0 %
Test CRC 3FD37D32
Copy CRC 3FD37D32
Accurately ripped (confidence 2) [2D2F86DC] (AR v1)
Copy OK
Track 6
Filename D:\zzz\06 - Big Top.wav
Pre-gap length 0:00:03.00
Peak level 98.1 %
Extraction speed 7.6 X
Track quality 100.0 %
Test CRC 9275E2B9
Copy CRC 9275E2B9
Accurately ripped (confidence 2) [93FABDD4] (AR v1)
Copy OK
Track 7
Filename D:\zzz\07 - Under The Dock.wav
Pre-gap length 0:00:02.00
Peak level 99.5 %
Extraction speed 8.3 X
Track quality 100.0 %
Test CRC 5A7E5E4A
Copy CRC 5A7E5E4A
Accurately ripped (confidence 2) [0ECE1590] (AR v1)
Copy OK
Track 8
Filename D:\zzz\08 - Lullabye.wav
Pre-gap length 0:00:03.00
Peak level 98.0 %
Extraction speed 7.3 X
Track quality 100.0 %
Test CRC 2A7C96DC
Copy CRC 2A7C96DC
Accurately ripped (confidence 2) [2EE37137] (AR v1)
Copy OK
Track 9
Filename D:\zzz\09 - Walk Home.wav
Pre-gap length 0:00:02.00
Peak level 99.4 %
Extraction speed 8.6 X
Track quality 100.0 %
Test CRC 153F9770
Copy CRC 153F9770
Accurately ripped (confidence 2) [F281DB7C] (AR v1)
Copy OK
All tracks accurately ripped
No errors occurred
End of status report
==== Log checksum C30AF00AF3D4F81F40149450B300D9A5F329EBBFCB31C81407100FCF60F77A5E ====
 
Содержание индексной карты (.CUE)
REM GENRE "Avant-Garde Jazz"
REM DATE 1999
REM DISCID 850EAB09
REM COMMENT "ExactAudioCopy v1.0b3"
PERFORMER "The Peggy Lee Band"
TITLE "The Peggy Lee Band"
FILE "01 - Message To Little Shoe.wav" WAVE
TRACK 01 AUDIO
TITLE "Message To Little Shoe"
PERFORMER "The Peggy Lee Band"
INDEX 01 00:00:00
TRACK 02 AUDIO
TITLE "Two Stories"
PERFORMER "The Peggy Lee Band"
INDEX 00 04:34:07
FILE "02 - Two Stories.wav" WAVE
INDEX 01 00:00:00
TRACK 03 AUDIO
TITLE "Monkey Puzzle"
PERFORMER "The Peggy Lee Band"
INDEX 00 07:44:45
FILE "03 - Monkey Puzzle.wav" WAVE
INDEX 01 00:00:00
TRACK 04 AUDIO
TITLE "Fossil"
PERFORMER "The Peggy Lee Band"
INDEX 00 05:38:04
FILE "04 - Fossil.wav" WAVE
INDEX 01 00:00:00
TRACK 05 AUDIO
TITLE "Long Beach"
PERFORMER "The Peggy Lee Band"
INDEX 00 08:11:58
FILE "05 - Long Beach.wav" WAVE
INDEX 01 00:00:00
TRACK 06 AUDIO
TITLE "Big Top"
PERFORMER "The Peggy Lee Band"
INDEX 00 06:05:23
FILE "06 - Big Top.wav" WAVE
INDEX 01 00:00:00
TRACK 07 AUDIO
TITLE "Under The Dock"
PERFORMER "The Peggy Lee Band"
INDEX 00 09:49:05
FILE "07 - Under The Dock.wav" WAVE
INDEX 01 00:00:00
TRACK 08 AUDIO
TITLE "Lullabye"
PERFORMER "The Peggy Lee Band"
INDEX 00 11:12:39
FILE "08 - Lullabye.wav" WAVE
INDEX 01 00:00:00
TRACK 09 AUDIO
TITLE "Walk Home"
PERFORMER "The Peggy Lee Band"
INDEX 00 02:22:61
FILE "09 - Walk Home.wav" WAVE
INDEX 01 00:00:00
 
Лог проверки качества
d:\>d:\aucdtect -d/-m0 d:\zzz\*.wav
auCDtect: CD records authenticity detector, version 0.8.2
Copyright (c) 2004 Oleg Berngardt. All rights reserved.
Copyright (c) 2004 Alexander Djourik. All rights reserved.
------------------------------------------------------------
Processing file: [01. Message To Little Shoe.wav]
------------------------------------------------------------
This track looks like CDDA with probability 100%
------------------------------------------------------------
Processing file: [02. Two Stories.wav]
------------------------------------------------------------
This track looks like CDDA with probability 100%
------------------------------------------------------------
Processing file: [03. Monkey Puzzle.wav]
------------------------------------------------------------
This track looks like CDDA with probability 100%
------------------------------------------------------------
Processing file: [04. Fossil.wav]
------------------------------------------------------------
This track looks like CDDA with probability 100%
------------------------------------------------------------
Processing file: [05. Long Beach.wav]
------------------------------------------------------------
This track looks like CDDA with probability 100%
------------------------------------------------------------
Processing file: [06. Big Top.wav]
------------------------------------------------------------
This track looks like CDDA with probability 100%
------------------------------------------------------------
Processing file: [07. Under The Dock.wav]
------------------------------------------------------------
This track looks like CDDA with probability 100%
------------------------------------------------------------
Processing file: [08. Lullabye.wav]
------------------------------------------------------------
This track looks like CDDA with probability 100%
------------------------------------------------------------
Processing file: [09. Walk Home.wav]
------------------------------------------------------------
This track looks like CDDA with probability 100%
------------------------------------------------------------
Final Conclusion:
------------------------------------------------------------
These tracks looks like CDDA with probability 100%
Доп. информация:
 
Album Info & AMG Review
All compositions by Peggy Lee
Recorded and mixed by Shawn Pierce for Maximum Music Ltd.
Recorded and mixed at Blue Wave Productions in Vancouver B.C. Canada
Assistant: Matthew Marteinsson
Digitally edited and mastered by Shawn Pierce
Additional mastering by Paul Shatto
Photos by Stephen Scott Patterson (C)1999
Layout by Chris Tarry
Produced by Peggy Lee and Shawn Pierce
Production assistance: Dylan Van Der Schyff
An unusual band, for several reasons. First, it is led by a cellist, and a female one at that (both, incredibly, still unusual at the turn of the 21st century). Second, the three stringed instruments plus two brass and percussion give the "band" an unusual, chamber-like sound, even with the electric bass and electric guitar. While this is indefinable stylistically, it does combine elements of free jazz, chamber music, and even rock. Often, there is a mournful quality, and the tempos tend to be snail-ish. The end results are compellingly attractive, though, all the more so considering the fine musicianship. Brad Turner, in particular, is a pleasure on trumpet, with jabs and slurps that always seem to concentrate on a tonal or structured center. Lee composed all the tunes, and she always maintains interest with fascinating harmonic changes. Tony Wilson is a blast on electric guitar, where he shoots forth rapidly virtuosic lines. The arrangements are surprisingly accessible, and if there is a criticism it is that the pieces sometimes lack focus. Considering the overall effect, this is a minor inconvenience, and whether it is Dylan van der Schyff's brilliant drums or Lee's melodic strings, the refreshingly unique sounds impress and entertain.
 
Состав
Brad Turner: trumpet and flugelhorn
Jeremy Berkman: trombone
Peggy Lee: cello
Tony Wilson: electric guitar
Chris Tarry: electric bass
Dylan Van Der Schyff: drums, drum machine, electronics
01:19
290
Нет комментариев. Ваш будет первым!