Вы используете незарегистрированную версию компонента "Вкладки"!

Поиск

(Avant-Garde Jazz, Free Improvisation) [CD] Helen Bledsoe, Alexey Lapin, Melvyn Poore, Matthias Schubert, Roger Turner - Seek It Not With Your Eyes - 2010, FLAC (tracks+.cue), lossless

(Avant-Garde Jazz, Free Improvisation) [CD] Helen Bledsoe, Alexey Lapin, Melvyn Poore, Matthias Schubert, Roger Turner - Seek It Not With Your Eyes - 2010, FLAC (tracks+.cue), lossless
Треклист:
Helen Bledsoe, Alexey Lapin, Melvyn Poore, Matthias Schubert, Roger Turner / Seek It Not With Your Eyes
Жанр: Avant-Garde Jazz, Free Improvisation
Носитель: CD
Страна-производитель диска: Canada
Год издания: 2010
Издатель (лейбл): Red Toucan Records
Номер по каталогу: RT 9339
Страна: UK
Аудиокодек: FLAC (*.flac)
Тип рипа: tracks+.cue
Битрейт аудио: lossless
Продолжительность: 72:28
Источник (релизер): свой фирменный диск
Наличие сканов в содержимом раздачи:
Треклист:
1. Per Aspera 10:33
2. Can't Catch The Name 16:12
3. Blur / Fanfare For The Rational Man 6:12
4. Little Ways To Perceive The Invisible 23:40
5. Animated Beings 15:50
 
Лог создания рипа
Exact Audio Copy V1.0 beta 3 from 29. August 2011
EAC extraction logfile from 21. March 2014, 0:12
Helen Bledsoe, Alexey Lapin, Melvyn Poore, Matthias Schubert, Roger Turner / Seek It Not With Your Eyes
Used drive : TSSTcorpCDDVDW SH-222AB Adapter: 1 ID: 0
Read mode : Secure
Utilize accurate stream : Yes
Defeat audio cache : Yes
Make use of C2 pointers : No
Read offset correction : 6
Overread into Lead-In and Lead-Out : No
Fill up missing offset samples with silence : Yes
Delete leading and trailing silent blocks : No
Null samples used in CRC calculations : Yes
Used interface : Installed external ASPI interface
Gap handling : Appended to previous track
Used output format : User Defined Encoder
Selected bitrate : 896 kBit/s
Quality : High
Add ID3 tag : No
Command line compressor : C:\Program Files\Exact Audio Copy\FLAC\FLAC.EXE
Additional command line options : -6 -V -T "ARTIST=%artist%" -T "TITLE=%title%" -T "ALBUM=%albumtitle%" -T "DATE=%year%" -T "TRACKNUMBER=%tracknr%" -T "GENRE=%genre%" -T "COMMENT=%comment%" -T "BAND=%albuminterpret%" -T "COMPOSER=%composer%" %haslyrics%--tag-from-file=LYRICS="%lyricsfile%"%haslyrics% -T "DISCNUMBER=%cdnumber%" -T "TOTALDISCS=%totalcds%" -T "TOTALTRACKS=%numtracks%" %hascover%--picture="%coverfile%"%hascover% %source% -o %dest%
TOC of the extracted CD
Track | Start | Length | Start sector | End sector
---------------------------------------------------------
1 | 0:00.00 | 10:33.13 | 0 | 47487
2 | 10:33.13 | 16:12.31 | 47488 | 120418
3 | 26:45.44 | 6:12.04 | 120419 | 148322
4 | 32:57.48 | 23:40.39 | 148323 | 254861
5 | 56:38.12 | 15:50.36 | 254862 | 326147
Track 1
Filename D:\zzz\01 - Per Aspera.wav
Pre-gap length 0:00:02.00
Peak level 91.7 %
Extraction speed 3.0 X
Track quality 100.0 %
Test CRC 1FA8E213
Copy CRC 1FA8E213
Accurately ripped (confidence 1) [0E7A1ECD] (AR v2)
Copy OK
Track 2
Filename D:\zzz\02 - Can't Catch The Name.wav
Peak level 62.3 %
Extraction speed 2.9 X
Track quality 99.9 %
Test CRC 0115E766
Copy CRC 0115E766
Accurately ripped (confidence 1) [C70FF6D5] (AR v2)
Copy OK
Track 3
Filename D:\zzz\03 - Blur , Fanfare For The Rational Man.wav
Peak level 70.7 %
Extraction speed 2.9 X
Track quality 100.0 %
Test CRC 7E855B41
Copy CRC 7E855B41
Accurately ripped (confidence 1) [320C3705] (AR v2)
Copy OK
Track 4
Filename D:\zzz\04 - Little Ways To Perceive The Invisible.wav
Peak level 79.2 %
Extraction speed 3.1 X
Track quality 100.0 %
Test CRC D6CC8211
Copy CRC D6CC8211
Accurately ripped (confidence 1) [1C8D9BCC] (AR v2)
Copy OK
Track 5
Filename D:\zzz\05 - Animated Beings.wav
Peak level 65.0 %
Extraction speed 2.9 X
Track quality 99.9 %
Test CRC E74301ED
Copy CRC E74301ED
Accurately ripped (confidence 1) [EE07FE2E] (AR v2)
Copy OK
All tracks accurately ripped
No errors occurred
End of status report
==== Log checksum 34F2B89C495701E33C42976B7869B093C354DB44A4C0CE6AEF59C2DBB73DEF76 ====
 
Содержание индексной карты (.CUE)
REM GENRE "Free Improvisation"
REM DATE 2010
REM DISCID 3F10FC05
REM COMMENT "ExactAudioCopy v1.0b3"
PERFORMER "Helen Bledsoe, Alexey Lapin, Melvyn Poore, Matthias Schubert, Roger Turner"
TITLE "Seek It Not With Your Eyes"
FILE "01 - Per Aspera.wav" WAVE
TRACK 01 AUDIO
TITLE "Per Aspera"
PERFORMER "Helen Bledsoe, Alexey Lapin, Melvyn Poore, Matthias Schubert, Roger Turner"
INDEX 01 00:00:00
FILE "02 - Can't Catch The Name.wav" WAVE
TRACK 02 AUDIO
TITLE "Can't Catch The Name"
PERFORMER "Helen Bledsoe, Alexey Lapin, Melvyn Poore, Matthias Schubert, Roger Turner"
INDEX 01 00:00:00
FILE "03 - Blur , Fanfare For The Rational Man.wav" WAVE
TRACK 03 AUDIO
TITLE "Blur / Fanfare For The Rational Man"
PERFORMER "Helen Bledsoe, Alexey Lapin, Melvyn Poore, Matthias Schubert, Roger Turner"
INDEX 01 00:00:00
FILE "04 - Little Ways To Perceive The Invisible.wav" WAVE
TRACK 04 AUDIO
TITLE "Little Ways To Perceive The Invisible"
PERFORMER "Helen Bledsoe, Alexey Lapin, Melvyn Poore, Matthias Schubert, Roger Turner"
INDEX 01 00:00:00
INDEX 02 06:07:56
INDEX 03 14:42:41
FILE "05 - Animated Beings.wav" WAVE
TRACK 05 AUDIO
TITLE "Animated Beings"
PERFORMER "Helen Bledsoe, Alexey Lapin, Melvyn Poore, Matthias Schubert, Roger Turner"
INDEX 01 00:00:00
 
Лог проверки качества
d:\>d:\aucdtect -d/-m0 d:\zzz\*.wav
auCDtect: CD records authenticity detector, version 0.8.2
Copyright (c) 2004 Oleg Berngardt. All rights reserved.
Copyright (c) 2004 Alexander Djourik. All rights reserved.
------------------------------------------------------------
Processing file: [01. Per Aspera.wav]
------------------------------------------------------------
This track looks like CDDA with probability 100%
------------------------------------------------------------
Processing file: [02. Can't Catch The Name.wav]
------------------------------------------------------------
This track looks like CDDA with probability 100%
------------------------------------------------------------
Processing file: [03. Blur - Fanfare For The Rational Man.wav]
------------------------------------------------------------
This track looks like CDDA with probability 100%
------------------------------------------------------------
Processing file: [04. Little Ways To Perceive The Invisible.wav]
------------------------------------------------------------
This track looks like CDDA with probability 99%
------------------------------------------------------------
Processing file: [05. Animated Beings.wav]
------------------------------------------------------------
This track looks like CDDA with probability 99%
------------------------------------------------------------
Final Conclusion:
------------------------------------------------------------
These tracks looks like CDDA with probability 100%
Доп. информация:
 
Album Info & AAJ Review
Recorded live at the LOFT (Cologne, Germany), June 18, 2009
All music improvised
Recorded by Christian Heck
Mixed and mastered by Alexey Lapin
Thanks to Simon Nabatov and Hans-Martin Muller
Photo: Alexander Burov
Graphic design: Marcel Boucher
Artistic director: Michel Passaretti
Pianist Alexey Lapin, tenor saxophonist Matthias Schubert and tubaist Melvyn Poore planned a trio date at Cologne, Germany's The Loft, on June 28, 2009. With percussionist Roger Turner in town, the trio became a quartet, and then flautist Helen Bledsoe sat in for a second set of two tunes. The original concept may have changed, but the direction the evening took did not. All of the music was improvised, except for "Can't Catch the Name," which took flight from a melody written by Lapin.
All five players are improvisers, ready to turn an idea into a germane presence in an instant. A wisp, a fragment, a note floating hazily in the air is harnessed and turned into vital conversation. Time is controlled by space as significantly as it is a stream of interaction.
Lapin, playing live outside his native Russia for the first time, sets up "Per Aspera," a line of protracted notes turning into a well of melody complemented, at first, by Turner, before Schubert and Poore come in. What transpires is an eddying whirlpool of sound, the instruments comingling, even as they voice their individuality. Strangled squiggles of saxophone weave through the piano notes before straightening into a melodic progression, with euphonium providing a backdrop of smooth linearity. The communication is symbiotic.
Bledsoe gets right into the feel, opening the path to "Little Ways to Perceive the Invisible," a roiling combustion that textures the fabric. The undercurrent surges, the instruments cross, cutting and igniting a marvelous storm of fertile ideas. Throbbing patterns are stimulated by a constant sense of urgency, and while the high kicks in and locks; the pattern never stays the same. The chiming piano chords, percussion's tinkling, horns' crying and flute's airiness are also tangents in the frame.
All the music reverberates to capture the imagination.
 
Состав
Helen Bledsoe: flute (4,5)
Alexey Lapin: piano
Melvyn Poore: tuba, euphonium
Matthias Schubert: tenor sax
Roger Turner: percussion
По всем вопросам пишите личное сообщение пользователю M0p94ok.
01:18
152
Нет комментариев. Ваш будет первым!