Вы используете незарегистрированную версию компонента "Вкладки"!

Поиск

(Avant-Garde Jazz, Free Improvisation) [CD] Lawrence D. "Butch" Morris - Conduction / Induction (2CD) - 2007, FLAC (tracks+.cue), lossless

(Avant-Garde Jazz, Free Improvisation) [CD] Lawrence D. "Butch" Morris - Conduction / Induction (2CD) - 2007, FLAC (tracks+.cue), lossless
Треклист:
Lawrence D. "Butch" Morris / Conduction / Induction (2CD)
Жанр: Avant-Garde Jazz, Free Improvisation
Носитель: CD
Страна-производитель диска: Italy
Год издания: 2007
Издатель (лейбл): Rai Trade
Номер по каталогу: RTPJ 0009
Страна: US
Аудиокодек: FLAC (*.flac)
Тип рипа: tracks+.cue
Битрейт аудио: lossless
Продолжительность: 53:32 + 77:42
Источник (релизер): свой фирменный диск
Наличие сканов в содержимом раздачи:
Треклист:
 
CD1
"Conduction (R) No. 135, Sheng Skyscraper"
1. 21:53
2. 3:18
3. 12:31
4. 3:01
5. 8:45
6. 4:03
 
CD2
"Induction No. 2/1, Emyoueseyesee.it"
1. 7:31
2. 32:00
3. 10:28
4. 6:17
5. 6:56
"Induction No. 2/1, Emyoueseyesee.it"
(estratto dalle prove / rehearsals excerpt)
6. 14:43
 
Лог создания рипа
 
CD1
Exact Audio Copy V1.0 beta 3 from 29. August 2011
EAC extraction logfile from 19. March 2014, 20:07
Lawrence D. Butch Morris / Conduction / Induction CD1
Used drive : PIONEER DVD-RW DVR-115D Adapter: 0 ID: 0
Read mode : Secure
Utilize accurate stream : Yes
Defeat audio cache : Yes
Make use of C2 pointers : No
Read offset correction : 48
Overread into Lead-In and Lead-Out : No
Fill up missing offset samples with silence : Yes
Delete leading and trailing silent blocks : No
Null samples used in CRC calculations : Yes
Used interface : Installed external ASPI interface
Gap handling : Appended to previous track
Used output format : User Defined Encoder
Selected bitrate : 896 kBit/s
Quality : High
Add ID3 tag : No
Command line compressor : C:\Program Files\Exact Audio Copy\FLAC\FLAC.EXE
Additional command line options : -6 -V -T "ARTIST=%artist%" -T "TITLE=%title%" -T "ALBUM=%albumtitle%" -T "DATE=%year%" -T "TRACKNUMBER=%tracknr%" -T "GENRE=%genre%" -T "COMMENT=%comment%" -T "BAND=%albuminterpret%" -T "COMPOSER=%composer%" %haslyrics%--tag-from-file=LYRICS="%lyricsfile%"%haslyrics% -T "DISCNUMBER=%cdnumber%" -T "TOTALDISCS=%totalcds%" -T "TOTALTRACKS=%numtracks%" %hascover%--picture="%coverfile%"%hascover% %source% -o %dest%
TOC of the extracted CD
Track | Start | Length | Start sector | End sector
---------------------------------------------------------
1 | 0:00.00 | 21:53.68 | 0 | 98542
2 | 21:53.68 | 3:18.22 | 98543 | 113414
3 | 25:12.15 | 12:31.35 | 113415 | 169774
4 | 37:43.50 | 3:01.07 | 169775 | 183356
5 | 40:44.57 | 8:44.74 | 183357 | 222730
6 | 49:29.56 | 4:03.01 | 222731 | 240956
Track 1
Filename D:\zzz\01 - Conduction No. 135, Sheng Skyscraper I.wav
Pre-gap length 0:00:02.00
Peak level 98.8 %
Extraction speed 5.9 X
Track quality 100.0 %
Test CRC 5FFE9436
Copy CRC 5FFE9436
Cannot be verified as accurate (confidence 1) [8D2AA48F], AccurateRip returned [EDE3DA81] (AR v2)
Copy OK
Track 2
Filename D:\zzz\02 - Conduction No. 135, Sheng Skyscraper II.wav
Peak level 98.8 %
Extraction speed 6.2 X
Track quality 100.0 %
Test CRC C246BF60
Copy CRC C246BF60
Cannot be verified as accurate (confidence 1) [FB9F42DA], AccurateRip returned [33D87B3B] (AR v2)
Copy OK
Track 3
Filename D:\zzz\03 - Conduction No. 135, Sheng Skyscraper III.wav
Peak level 98.8 %
Extraction speed 7.6 X
Track quality 100.0 %
Test CRC F31912BC
Copy CRC F31912BC
Cannot be verified as accurate (confidence 1) [72EFD339], AccurateRip returned [3C637760] (AR v2)
Copy OK
Track 4
Filename D:\zzz\04 - Conduction No. 135, Sheng Skyscraper IV.wav
Peak level 98.8 %
Extraction speed 7.1 X
Track quality 100.0 %
Test CRC 7F94ADE9
Copy CRC 7F94ADE9
Cannot be verified as accurate (confidence 1) [2E4D6202], AccurateRip returned [BE50FAC0] (AR v2)
Copy OK
Track 5
Filename D:\zzz\05 - Conduction No. 135, Sheng Skyscraper V.wav
Peak level 98.8 %
Extraction speed 8.3 X
Track quality 100.0 %
Test CRC 1FC160A0
Copy CRC 1FC160A0
Cannot be verified as accurate (confidence 1) [F0C5D740], AccurateRip returned [63FB0366] (AR v2)
Copy OK
Track 6
Filename D:\zzz\06 - Conduction No. 135, Sheng Skyscraper VI.wav
Peak level 98.8 %
Extraction speed 7.1 X
Track quality 99.9 %
Test CRC 4C1FA667
Copy CRC 4C1FA667
Cannot be verified as accurate (confidence 1) [866097DE], AccurateRip returned [D1238ED8] (AR v2)
Copy OK
No tracks could be verified as accurate
You may have a different pressing from the one(s) in the database
No errors occurred
End of status report
==== Log checksum F327EFE8147961FEC241C81C96A616EA21719B63B7F5BF9221ACCBCEB365E051 ====
 
CD2
Exact Audio Copy V1.0 beta 3 from 29. August 2011
EAC extraction logfile from 19. March 2014, 23:27
Lawrence D. Butch Morris / Conduction / Induction CD2
Used drive : PIONEER DVD-RW DVR-115D Adapter: 0 ID: 0
Read mode : Secure
Utilize accurate stream : Yes
Defeat audio cache : Yes
Make use of C2 pointers : No
Read offset correction : 48
Overread into Lead-In and Lead-Out : No
Fill up missing offset samples with silence : Yes
Delete leading and trailing silent blocks : No
Null samples used in CRC calculations : Yes
Used interface : Installed external ASPI interface
Gap handling : Appended to previous track
Used output format : User Defined Encoder
Selected bitrate : 896 kBit/s
Quality : High
Add ID3 tag : No
Command line compressor : C:\Program Files\Exact Audio Copy\FLAC\FLAC.EXE
Additional command line options : -6 -V -T "ARTIST=%artist%" -T "TITLE=%title%" -T "ALBUM=%albumtitle%" -T "DATE=%year%" -T "TRACKNUMBER=%tracknr%" -T "GENRE=%genre%" -T "COMMENT=%comment%" -T "BAND=%albuminterpret%" -T "COMPOSER=%composer%" %haslyrics%--tag-from-file=LYRICS="%lyricsfile%"%haslyrics% -T "DISCNUMBER=%cdnumber%" -T "TOTALDISCS=%totalcds%" -T "TOTALTRACKS=%numtracks%" %hascover%--picture="%coverfile%"%hascover% %source% -o %dest%
TOC of the extracted CD
Track | Start | Length | Start sector | End sector
---------------------------------------------------------
1 | 0:00.00 | 7:28.07 | 0 | 33606
2 | 7:28.07 | 32:00.02 | 33607 | 177608
3 | 39:28.09 | 10:28.36 | 177609 | 224744
4 | 49:56.45 | 6:17.34 | 224745 | 253053
5 | 56:14.04 | 6:45.61 | 253054 | 283489
6 | 62:59.65 | 14:42.66 | 283490 | 349705
Track 1
Filename D:\zzz\01 - Induction No. 2,1, Emyoueseyesee.it I.wav
Pre-gap length 0:00:02.00
Peak level 98.8 %
Extraction speed 5.2 X
Track quality 100.0 %
Test CRC 7B167FD1
Copy CRC 7B167FD1
Cannot be verified as accurate (confidence 1) [201144F1], AccurateRip returned [F274FEA9] (AR v2)
Copy OK
Track 2
Filename D:\zzz\02 - Induction No. 2,1, Emyoueseyesee.it II.wav
Peak level 98.8 %
Extraction speed 7.2 X
Track quality 100.0 %
Test CRC 91802810
Copy CRC 91802810
Cannot be verified as accurate (confidence 1) [5EDB3A1E], AccurateRip returned [9175B52E] (AR v2)
Copy OK
Track 3
Filename D:\zzz\03 - Induction No. 2,1, Emyoueseyesee.it III.wav
Peak level 98.8 %
Extraction speed 8.0 X
Track quality 99.9 %
Test CRC 5A3EDF9F
Copy CRC 5A3EDF9F
Cannot be verified as accurate (confidence 1) [C856829C], AccurateRip returned [155B6006] (AR v2)
Copy OK
Track 4
Filename D:\zzz\04 - Induction No. 2,1, Emyoueseyesee.it IV.wav
Peak level 98.8 %
Extraction speed 7.9 X
Track quality 99.9 %
Test CRC F66B7C97
Copy CRC F66B7C97
Cannot be verified as accurate (confidence 1) [042827EE], AccurateRip returned [BED99E02] (AR v2)
Copy OK
Track 5
Filename D:\zzz\05 - Induction No. 2,1, Emyoueseyesee.it V.wav
Peak level 98.8 %
Extraction speed 8.9 X
Track quality 100.0 %
Test CRC 30250EDE
Copy CRC 30250EDE
Cannot be verified as accurate (confidence 1) [9C6AB905], AccurateRip returned [D2BB74F8] (AR v2)
Copy OK
Track 6
Filename D:\zzz\06 - Induction No. 2,1, Emyoueseyesee.it VI.wav
Peak level 98.8 %
Extraction speed 9.9 X
Track quality 100.0 %
Test CRC 6F3D43F7
Copy CRC 6F3D43F7
Cannot be verified as accurate (confidence 1) [390EDBEF], AccurateRip returned [4DC42421] (AR v2)
Copy OK
No tracks could be verified as accurate
You may have a different pressing from the one(s) in the database
No errors occurred
End of status report
==== Log checksum BD0DE1F8C9C0E62CFFFE19B19F36F64C3874A946B4E1567FBD5795457FE35166 ====
 
Содержание индексной карты (.CUE)
 
CD1
REM GENRE Avant-Garde
REM DATE 2007
REM DISCID 490C8C06
REM COMMENT "ExactAudioCopy v1.0b3"
PERFORMER "Lawrence D. Butch Morris"
TITLE "Conduction / Induction CD1"
FILE "01 - Conduction No. 135, Sheng Skyscraper I.wav" WAVE
TRACK 01 AUDIO
TITLE "Conduction No. 135, Sheng Skyscraper I"
PERFORMER "Lawrence D. Butch Morris"
FLAGS DCP
INDEX 01 00:00:00
FILE "02 - Conduction No. 135, Sheng Skyscraper II.wav" WAVE
TRACK 02 AUDIO
TITLE "Conduction No. 135, Sheng Skyscraper II"
PERFORMER "Lawrence D. Butch Morris"
FLAGS DCP
INDEX 01 00:00:00
FILE "03 - Conduction No. 135, Sheng Skyscraper III.wav" WAVE
TRACK 03 AUDIO
TITLE "Conduction No. 135, Sheng Skyscraper III"
PERFORMER "Lawrence D. Butch Morris"
FLAGS DCP
INDEX 01 00:00:00
FILE "04 - Conduction No. 135, Sheng Skyscraper IV.wav" WAVE
TRACK 04 AUDIO
TITLE "Conduction No. 135, Sheng Skyscraper IV"
PERFORMER "Lawrence D. Butch Morris"
FLAGS DCP
INDEX 01 00:00:00
FILE "05 - Conduction No. 135, Sheng Skyscraper V.wav" WAVE
TRACK 05 AUDIO
TITLE "Conduction No. 135, Sheng Skyscraper V"
PERFORMER "Lawrence D. Butch Morris"
FLAGS DCP
INDEX 01 00:00:00
FILE "06 - Conduction No. 135, Sheng Skyscraper VI.wav" WAVE
TRACK 06 AUDIO
TITLE "Conduction No. 135, Sheng Skyscraper VI"
PERFORMER "Lawrence D. Butch Morris"
FLAGS DCP
INDEX 01 00:00:00
 
CD2
REM GENRE Avant-Garde
REM DATE 2007
REM DISCID 59123606
REM COMMENT "ExactAudioCopy v1.0b3"
PERFORMER "Lawrence D. Butch Morris"
TITLE "Conduction / Induction CD2"
FILE "01 - Induction No. 2,1, Emyoueseyesee.it I.wav" WAVE
TRACK 01 AUDIO
TITLE "Induction No. 2/1, Emyoueseyesee.it I"
PERFORMER "Lawrence D. Butch Morris"
FLAGS DCP
INDEX 01 00:00:00
FILE "02 - Induction No. 2,1, Emyoueseyesee.it II.wav" WAVE
TRACK 02 AUDIO
TITLE "Induction No. 2/1, Emyoueseyesee.it II"
PERFORMER "Lawrence D. Butch Morris"
FLAGS DCP
INDEX 01 00:00:00
FILE "03 - Induction No. 2,1, Emyoueseyesee.it III.wav" WAVE
TRACK 03 AUDIO
TITLE "Induction No. 2/1, Emyoueseyesee.it III"
PERFORMER "Lawrence D. Butch Morris"
FLAGS DCP
INDEX 01 00:00:00
FILE "04 - Induction No. 2,1, Emyoueseyesee.it IV.wav" WAVE
TRACK 04 AUDIO
TITLE "Induction No. 2/1, Emyoueseyesee.it IV"
PERFORMER "Lawrence D. Butch Morris"
FLAGS DCP
INDEX 01 00:00:00
FILE "05 - Induction No. 2,1, Emyoueseyesee.it V.wav" WAVE
TRACK 05 AUDIO
TITLE "Induction No. 2/1, Emyoueseyesee.it V"
PERFORMER "Lawrence D. Butch Morris"
FLAGS DCP
INDEX 01 00:00:00
FILE "06 - Induction No. 2,1, Emyoueseyesee.it VI.wav" WAVE
TRACK 06 AUDIO
TITLE "Induction No. 2/1, Emyoueseyesee.it VI"
PERFORMER "Lawrence D. Butch Morris"
FLAGS DCP
INDEX 01 00:00:00
 
Лог проверки качества
d:\>d:\aucdtect -d/-m0 d:\zzz\*.wav
auCDtect: CD records authenticity detector, version 0.8.2
Copyright (c) 2004 Oleg Berngardt. All rights reserved.
Copyright (c) 2004 Alexander Djourik. All rights reserved.
------------------------------------------------------------
Processing file: [01. Conduction No. 135, Sheng Skyscraper I.wav]
------------------------------------------------------------
This track looks like CDDA with probability 100%
------------------------------------------------------------
Processing file: [01. Induction No. 2-1, Emyoueseyesee.it I.wav]
------------------------------------------------------------
This track looks like CDDA with probability 100%
------------------------------------------------------------
Processing file: [02. Conduction No. 135, Sheng Skyscraper II.wav]
------------------------------------------------------------
This track looks like CDDA with probability 76%
------------------------------------------------------------
Processing file: [02. Induction No. 2-1, Emyoueseyesee.it II.wav]
------------------------------------------------------------
This track looks like CDDA with probability 100%
------------------------------------------------------------
Processing file: [03. Conduction No. 135, Sheng Skyscraper III.wav]
------------------------------------------------------------
This track looks like CDDA with probability 100%
------------------------------------------------------------
Processing file: [03. Induction No. 2-1, Emyoueseyesee.it III.wav]
------------------------------------------------------------
This track looks like CDDA with probability 99%
------------------------------------------------------------
Processing file: [04. Conduction No. 135, Sheng Skyscraper IV.wav]
------------------------------------------------------------
This track looks like CDDA with probability 100%
------------------------------------------------------------
Processing file: [04. Induction No. 2-1, Emyoueseyesee.it IV.wav]
------------------------------------------------------------
This track looks like CDDA with probability 100%
------------------------------------------------------------
Processing file: [05. Conduction No. 135, Sheng Skyscraper V.wav]
------------------------------------------------------------
This track looks like CDDA with probability 100%
------------------------------------------------------------
Processing file: [05. Induction No. 2-1, Emyoueseyesee.it V.wav]
------------------------------------------------------------
This track looks like CDDA with probability 100%
------------------------------------------------------------
Processing file: [06. Conduction No. 135, Sheng Skyscraper VI.wav]
------------------------------------------------------------
This track looks like CDDA with probability 43%
------------------------------------------------------------
Processing file: [06. Induction No. 2-1, Emyoueseyesee.it VI.wav]
------------------------------------------------------------
This track looks like CDDA with probability 100%
------------------------------------------------------------
Final Conclusion:
------------------------------------------------------------
These tracks looks like CDDA with probability 100%
Доп. информация:
 
Album Info
CD1 recorded live at Biennale Musica di Venezia, 47. Festival Internazionale di Musica Contemporanea "ReMix: Structures And Improvisations", Teatro alle Tese, Venezia, Italy, September 21st 2003
CD2 recorded live at Angelica, Festival Internazionale di Musica, sedicesimo anno "Momento Maggio", Teatro San Leonardo, Bologna, Italy, May 14th 2006
Sound engineers for CD1: Stefano Lancia assisted by Maurizio Lepri
Music consultant: Paolo Ghirlinzoni
Sound engineer for CD2: Roberto Monari (BH servizi audio)
Mastering (CD1 & 2): Roberto Monari
Produced by Massimo Simonini, Lawrence D. "Butch" Morris
Executive producer for Radiotre Suite Jazz: Pino Saulo
 
Состав
Thomas E. Chess: oud (1)
J.A. Deane: live sampling, drum machine (1)
Jason Kao Hwang: violin (1)
Shahzad Ismally: electric keyboard, drum machine (1)
Okkyung Lee: cello (1)
Cooper Moore: tese (1)
Matt Moran: vibraphone (1)
Jesse Murphy: electric bass (1)
Brandon Ross: electric guitar (1)
Tyshawn Sorey: drums (1)
Abou Sylla: balafon (1)
Balla Tounkara: kora (1)
Shu-ni Tsou: dizi (1)
Guowei Wang: erhu (1)
Junling Wang: guzheng (1)
Gianni Gebbia: alto sax (2)
Edoardo Marraffa: soprano sax (2)
Stefano Zorzanello: flute (2)
Patrick Novara: oboe (2)
Ramon Moro: trumpet (2)
Erica Scherl: violin (2)
Francesco Guerri: cello (2)
Antonio Borghini: acoustic bass (2)
Paolo Sorge: electric guitar, loops (2)
Manuele Giannini: electric guitar, electronics (2)
Elio Martusciello: modified guitar (2)
Luigi "Lullo" Mosso: electric bass (2)
Fabrizio "Abi" Rota: synthetizer (2)
Alessandro Bocci: computer, contact microphone, tibetan bell (2)
Davide Tidoni: computer, prepared sounds (2)
Pasquale Mirra: vibraphone (2)
Cristiano Calcagnile: drums, percussion (2)
Fabrizio Spera: drums, percussion (2)
Lawrence D. "Butch" Morris: conductor, liner notes
По всем вопросам пишите личное сообщение пользователю M0p94ok.
01:17
154
Нет комментариев. Ваш будет первым!