Вы используете незарегистрированную версию компонента "Вкладки"!

Поиск

(Avant-Garde, Contemporary Jazz) [CD] Giovanni Mirabassi Trio - Live at the Blue Note, Tokyo - 2010, FLAC (tracks+.cue), lossless

(Avant-Garde, Contemporary Jazz) [CD] Giovanni Mirabassi Trio - Live at the Blue Note, Tokyo - 2010, FLAC (tracks+.cue), lossless
Треклист:
Giovanni Mirabassi Trio - Live at the Blue Note, Tokyo
Жанр: Avant-Garde, Contemporary Jazz
Носитель: CD
Год издания: 2010
Издатель (лейбл): Discograph
Номер по каталогу: 3230862
Аудиокодек: FLAC (*.flac)
Тип рипа: tracks+.cue
Битрейт аудио: lossless
Продолжительность: 72:01
Источник (релизер): faethm (what)
Наличие сканов в содержимом раздачи: нет
Треклист:
01. NY #1 (8:07)
02. It's Us (8:17)
03. World Changes (9:27)
04. Here's the Captain (8:16)
05. My Broken Heart (3:59)
06. It Is What It Is (6:56)
07. Six for Sex (9:55)
08. Gold and Diamonds (9:43)
09. World Changes (Radio Edit) (7:21)
Состав:
Giovanni Mirabassi - piano
Gianluca Renzi - bass
Leon Parker - drums
Recorded at the Blue Note, Tokyo on April 23, 2010.
 
Лог создания рипа
X Lossless Decoder version 20131102 (145.0)
XLD extraction logfile from 2014-04-17 15:36:12 +0200
Giovanni Mirabassi Trio / Live At Blue Note Tokyo
Used drive : MATSHITA DVD-R UJ-898 (revision HC10)
Media type : Pressed CD
Ripper mode : XLD Secure Ripper
Disable audio cache : OK for the drive with a cache less than 1375KiB
Make use of C2 pointers : NO
Read offset correction : 102
Max retry count : 20
Gap status : Analyzed, Appended (except HTOA)
TOC of the extracted CD
Track | Start | Length | Start sector | End sector
---------------------------------------------------------
1 | 00:00:00 | 08:07:17 | 0 | 36541
2 | 08:07:17 | 08:16:50 | 36542 | 73791
3 | 16:23:67 | 09:26:52 | 73792 | 116293
4 | 25:50:44 | 08:16:11 | 116294 | 153504
5 | 34:06:55 | 03:59:06 | 153505 | 171435
6 | 38:05:61 | 06:56:28 | 171436 | 202663
7 | 45:02:14 | 09:54:45 | 202664 | 247258
8 | 54:56:59 | 09:43:13 | 247259 | 290996
9 | 64:39:72 | 07:20:66 | 290997 | 324062
AccurateRip Summary (DiscID: 0018aaa8-00b43d05-9210e009)
Track 01 : OK (v1+v2, confidence 21/21)
Track 02 : OK (v1+v2, confidence 21/21)
Track 03 : OK (v1+v2, confidence 21/21)
Track 04 : OK (v1+v2, confidence 21/21)
Track 05 : OK (v1+v2, confidence 21/21)
Track 06 : OK (v1+v2, confidence 19/21)
Track 07 : OK (v1+v2, confidence 21/21)
Track 08 : OK (v1+v2, confidence 21/21)
Track 09 : OK (v1+v2, confidence 21/21)
->All tracks accurately ripped.
All Tracks
Album gain : -3.00 dB
Peak : 0.955017
Statistics
Read error : 0
Jitter error (maybe fixed) : 0
Retry sector count : 0
Damaged sector count : 0
Track 01
Filename : /Users/Noe/Documents/Giovanni Mirabassi Trio - Live At Blue Note Tokyo (2010) [FLAC]/01 NY #1.flac
Pre-gap length : 00:02:00
Track gain : -2.35 dB
Peak : 0.954987
CRC32 hash (test run) : 52C51117
CRC32 hash : 52C51117
CRC32 hash (skip zero) : DC274A98
AccurateRip v1 signature : 223F1050
AccurateRip v2 signature : 688E7B5F
->Accurately ripped (v1+v2, confidence 5+16/21)
Statistics
Read error : 0
Jitter error (maybe fixed) : 0
Retry sector count : 0
Damaged sector count : 0
Track 02
Filename : /Users/Noe/Documents/Giovanni Mirabassi Trio - Live At Blue Note Tokyo (2010) [FLAC]/02 It's Us.flac
Track gain : -2.73 dB
Peak : 0.922638
CRC32 hash (test run) : C608E11C
CRC32 hash : C608E11C
CRC32 hash (skip zero) : 7F2C1568
AccurateRip v1 signature : 5094B1A3
AccurateRip v2 signature : 5A191C46
->Accurately ripped (v1+v2, confidence 5+16/21)
Statistics
Read error : 0
Jitter error (maybe fixed) : 0
Retry sector count : 0
Damaged sector count : 0
Track 03
Filename : /Users/Noe/Documents/Giovanni Mirabassi Trio - Live At Blue Note Tokyo (2010) [FLAC]/03 World Changes.flac
Track gain : -3.55 dB
Peak : 0.954987
CRC32 hash (test run) : 6B22BB3C
CRC32 hash : 6B22BB3C
CRC32 hash (skip zero) : 4B548D81
AccurateRip v1 signature : C36049D9
AccurateRip v2 signature : A53CE900
->Accurately ripped (v1+v2, confidence 5+16/21)
Statistics
Read error : 0
Jitter error (maybe fixed) : 0
Retry sector count : 0
Damaged sector count : 0
Track 04
Filename : /Users/Noe/Documents/Giovanni Mirabassi Trio - Live At Blue Note Tokyo (2010) [FLAC]/04 Here's The Captain.flac
Track gain : -4.12 dB
Peak : 0.955017
CRC32 hash (test run) : 25CB928B
CRC32 hash : 25CB928B
CRC32 hash (skip zero) : F0D56F69
AccurateRip v1 signature : 5BFD0E4B
AccurateRip v2 signature : 2D732BD8
->Accurately ripped (v1+v2, confidence 5+16/21)
Statistics
Read error : 0
Jitter error (maybe fixed) : 0
Retry sector count : 0
Damaged sector count : 0
Track 05
Filename : /Users/Noe/Documents/Giovanni Mirabassi Trio - Live At Blue Note Tokyo (2010) [FLAC]/05 My Broken Heart.flac
Track gain : -2.53 dB
Peak : 0.948517
CRC32 hash (test run) : F159A972
CRC32 hash : F159A972
CRC32 hash (skip zero) : 51847C93
AccurateRip v1 signature : 2ED9560E
AccurateRip v2 signature : E4F2AF62
->Accurately ripped (v1+v2, confidence 5+16/21)
Statistics
Read error : 0
Jitter error (maybe fixed) : 0
Retry sector count : 0
Damaged sector count : 0
Track 06
Filename : /Users/Noe/Documents/Giovanni Mirabassi Trio - Live At Blue Note Tokyo (2010) [FLAC]/06 It Is What It Is.flac
Track gain : -1.92 dB
Peak : 0.942810
CRC32 hash (test run) : 8F984BA9
CRC32 hash : 8F984BA9
CRC32 hash (skip zero) : 27773E89
AccurateRip v1 signature : F33272AD
AccurateRip v2 signature : 6F1B3CDF
->Accurately ripped (v1+v2, confidence 3+16/21)
Statistics
Read error : 0
Jitter error (maybe fixed) : 0
Retry sector count : 0
Damaged sector count : 0
Track 07
Filename : /Users/Noe/Documents/Giovanni Mirabassi Trio - Live At Blue Note Tokyo (2010) [FLAC]/07 Six For Sex.flac
Track gain : -3.24 dB
Peak : 0.948761
CRC32 hash (test run) : 37F8ECE5
CRC32 hash : 37F8ECE5
CRC32 hash (skip zero) : 450B953C
AccurateRip v1 signature : 34B8DCC4
AccurateRip v2 signature : 19EC7DB8
->Accurately ripped (v1+v2, confidence 5+16/21)
Statistics
Read error : 0
Jitter error (maybe fixed) : 0
Retry sector count : 0
Damaged sector count : 0
Track 08
Filename : /Users/Noe/Documents/Giovanni Mirabassi Trio - Live At Blue Note Tokyo (2010) [FLAC]/08 Gold And Diamonds.flac
Track gain : -1.88 dB
Peak : 0.954102
CRC32 hash (test run) : 8174580B
CRC32 hash : 8174580B
CRC32 hash (skip zero) : E9F77DCB
AccurateRip v1 signature : 0B710D4B
AccurateRip v2 signature : 91C9DAB0
->Accurately ripped (v1+v2, confidence 5+16/21)
Statistics
Read error : 0
Jitter error (maybe fixed) : 0
Retry sector count : 0
Damaged sector count : 0
Track 09
Filename : /Users/Noe/Documents/Giovanni Mirabassi Trio - Live At Blue Note Tokyo (2010) [FLAC]/09 World Changes (Radio Edit).flac
Pre-gap length : 00:00:74
Track gain : -3.87 dB
Peak : 0.954987
CRC32 hash (test run) : AA9AE952
CRC32 hash : AA9AE952
CRC32 hash (skip zero) : 847E5465
AccurateRip v1 signature : 9E77D063
AccurateRip v2 signature : 5969E34A
->Accurately ripped (v1+v2, confidence 5+16/21)
Statistics
Read error : 0
Jitter error (maybe fixed) : 0
Retry sector count : 0
Damaged sector count : 0
No errors occurred
End of status report
-----BEGIN XLD SIGNATURE-----
qJzY2LCYqp6Aozmj4uyaJnqiD9Y_OWpPk0fxOyml269bsIyCZOuqhcysz2OXxFY.seT64rcUR1qa3wGdniAR4S4FOy83BnPK.xqaRYW
-----END XLD SIGNATURE-----
 
Содержание индексной карты (.CUE)
TITLE "Live at the Blue Note, Tokyo"
PERFORMER "Giovanni Mirabassi"
REM GENRE "Jazz"
REM DATE "2010"
REM DISCID 9210E009
REM REPLAYGAIN_ALBUM_GAIN -3.00 dB
REM REPLAYGAIN_ALBUM_PEAK 0.955017
FILE "01 - NY #1.flac" WAVE
TRACK 01 AUDIO
TITLE "NY #1"
ISRC FR6W61000001
REM REPLAYGAIN_TRACK_GAIN -2.35 dB
REM REPLAYGAIN_TRACK_PEAK 0.954987
INDEX 01 00:00:00
FILE "02 - It's Us.flac" WAVE
TRACK 02 AUDIO
TITLE "It's Us"
ISRC FR6W61000002
REM REPLAYGAIN_TRACK_GAIN -2.73 dB
REM REPLAYGAIN_TRACK_PEAK 0.922638
INDEX 01 00:00:00
FILE "03 - World Changes.flac" WAVE
TRACK 03 AUDIO
TITLE "World Changes"
ISRC FR6W61000003
REM REPLAYGAIN_TRACK_GAIN -3.55 dB
REM REPLAYGAIN_TRACK_PEAK 0.954987
INDEX 01 00:00:00
FILE "04 - Here's the Captain.flac" WAVE
TRACK 04 AUDIO
TITLE "Here's the Captain"
ISRC FR6W61000004
REM REPLAYGAIN_TRACK_GAIN -4.12 dB
REM REPLAYGAIN_TRACK_PEAK 0.955017
INDEX 01 00:00:00
FILE "05 - My Broken Heart.flac" WAVE
TRACK 05 AUDIO
TITLE "My Broken Heart"
ISRC FR6W61000005
REM REPLAYGAIN_TRACK_GAIN -2.53 dB
REM REPLAYGAIN_TRACK_PEAK 0.948517
INDEX 01 00:00:00
FILE "06 - It Is What It Is.flac" WAVE
TRACK 06 AUDIO
TITLE "It Is What It Is"
ISRC FR6W61000006
REM REPLAYGAIN_TRACK_GAIN -1.92 dB
REM REPLAYGAIN_TRACK_PEAK 0.942810
INDEX 01 00:00:00
FILE "07 - Six for Sex.flac" WAVE
TRACK 07 AUDIO
TITLE "Six for Sex"
ISRC FR6W61000007
REM REPLAYGAIN_TRACK_GAIN -3.24 dB
REM REPLAYGAIN_TRACK_PEAK 0.948761
INDEX 01 00:00:00
FILE "08 - Gold and Diamonds.flac" WAVE
TRACK 08 AUDIO
TITLE "Gold and Diamonds"
ISRC FR6W61000008
REM REPLAYGAIN_TRACK_GAIN -1.88 dB
REM REPLAYGAIN_TRACK_PEAK 0.954102
INDEX 01 00:00:00
TRACK 09 AUDIO
TITLE "World Changes (Radio Edit)"
ISRC FR6W61000009
REM REPLAYGAIN_TRACK_GAIN -3.87 dB
REM REPLAYGAIN_TRACK_PEAK 0.954987
INDEX 00 09:42:14
FILE "09 - World Changes (Radio Edit).flac" WAVE
INDEX 01 00:00:00
 
Отчет CUETools
[CUETools log; Date: 18.04.2014 20:26:41; Version: 2.1.4]
[CTDB TOCID: f6IOPujWl9QBYY2yVDe8uycUy_I-] found.
Track | CTDB Status
1 | (3/3) Accurately ripped
2 | (3/3) Accurately ripped
3 | (3/3) Accurately ripped
4 | (3/3) Accurately ripped
5 | (3/3) Accurately ripped
6 | (3/3) Accurately ripped
7 | (3/3) Accurately ripped
8 | (3/3) Accurately ripped
9 | (3/3) Accurately ripped
[AccurateRip ID: 0018aaa8-00b43d05-9210e009] found.
Track [ CRC | V2 ] Status
01 [223f1050|688e7b5f] (05+16/21) Accurately ripped
02 [5094b1a3|5a191c46] (05+16/21) Accurately ripped
03 [c36049d9|a53ce900] (05+16/21) Accurately ripped
04 [5bfd0e4b|2d732bd8] (05+16/21) Accurately ripped
05 [2ed9560e|e4f2af62] (05+16/21) Accurately ripped
06 [f33272ad|6f1b3cdf] (03+16/21) Accurately ripped
07 [34b8dcc4|19ec7db8] (05+16/21) Accurately ripped
08 [0b710d4b|91c9dab0] (05+16/21) Accurately ripped
09 [9e77d063|5969e34a] (05+16/21) Accurately ripped
Track Peak [ CRC32 ] [W/O NULL]
-- 95,5 [BEAE2DF0] [752B16DA]
01 95,5 [52C51117] [DC274A98]
02 92,2 [C608E11C] [7F2C1568]
03 95,5 [6B22BB3C] [4B548D81]
04 95,5 [25CB928B] [F0D56F69]
05 94,8 [F159A972] [51847C93]
06 94,2 [8F984BA9] [27773E89]
07 94,8 [37F8ECE5] [450B953C]
08 95,4 [8174580B] [E9F77DCB]
09 95,5 [AA9AE952] [847E5465]
 
Об альбоме (сборнике)
"An exceptionally precise and dynamic sound recording. After the release of the two outstanding albums Terra Furiosa in 2008 and Out of Track, last year, the new album by the same trio recorded between 21st and 23rd April at the Blue Note in Tokyo is a great success. This is first due to the melodic and rhythmic richness of the nine compositions of the CD’s répertoire, displaying in turn pianist Giovanni Mirabassi’s elegiac and lilting style (My broken heart, World changes) and the swing and energy that characterize him (NY#1, It’s us). The rich improvisations with their brilliant internal logic are always followed by poetical undulating efflorescences, which are typical of the pianist’s style.
The success of this new album is also due to the trio itself, in perfect osmosis, with exceptional Leon Parker’s impressively precise drum playing and Gianluca Renzi, who constantly creates bass lines which do not only provide the melodic and rhythmic foundations of the phrasing, but can also approach what can sound like the human voice , when playing solo. This new album of remarkable sound quality which is a legendary characteristic of all CDs under Japanese label Vénus, renders Giovanni Mirabassi’s musical generosity when playing in concert, and certainly has the polished touch of all great classics."
Choc Classica – Jean-Pierre Jackson, December 2010.
По всем вопросам пишите личное сообщение пользователю M0p94ok.
01:17
177
Нет комментариев. Ваш будет первым!