Вы используете незарегистрированную версию компонента "Вкладки"!

Поиск

(Avant-Garde Jazz, Free Jazz) [CD] John Coltrane - Expression (1967) - 2011, FLAC (tracks+.cue), lossless

(Avant-Garde Jazz, Free Jazz) [CD] John Coltrane - Expression (1967) - 2011, FLAC (tracks+.cue), lossless
Треклист:
John Coltrane - Expression (1967) Жанр: Avant-Garde Jazz, Free Jazz
Носитель: CD
Год издания: 2011
Издатель (лейбл): Impulse!/UMG/Verve Originals Series
Номер по каталогу: B0015826-2
Аудиокодек: FLAC (*.flac)
Тип рипа: tracks+.cue
Битрейт аудио: lossless
Продолжительность: 39:19
Rip by ruskaval
Наличие сканов в содержимом раздачи: да
Треклист:
01. Ogunde (3:38)
02. To Be (16:22)
03. Offering (8:27)
04. Expression (10:52)
Personnel:
John Coltrane - tenor saxophone, flute
Pharoah Sanders - flute, piccolo, tambourine
Alice Coltrane - piano
Jimmy Garrison - bass
Rashied Ali - drums
 
 
Лог создания рипа
Exact Audio Copy V1.1 from 23. June 2015
EAC extraction logfile from 10. April 2016, 0:46
John Coltrane / Expression
Used drive : TSSTcorpCDDVDW SE-208DB Adapter: 1 ID: 0
Read mode : Secure
Utilize accurate stream : Yes
Defeat audio cache : Yes
Make use of C2 pointers : No
Read offset correction : 6
Overread into Lead-In and Lead-Out : No
Fill up missing offset samples with silence : Yes
Delete leading and trailing silent blocks : No
Null samples used in CRC calculations : Yes
Used interface : Native Win32 interface for Win NT & 2000
Gap handling : Appended to previous track
Used output format : User Defined Encoder
Selected bitrate : 1024 kBit/s
Quality : High
Add ID3 tag : No
Command line compressor : C:\Program Files (x86)\FLAC Frontend\tools\flac.exe
Additional command line options : -8 -V -T "ARTIST=%artist%" -T "TITLE=%title%" -T "ALBUM=%albumtitle%" -T "DATE=%year%" -T "TRACKNUMBER=%tracknr%" -T "TOTALTRACKS=%numtracks%" -T "GENRE=%genre%" -T "ALBUMARTIST=%albumartist%" -T "ALBUM ARTIST=%albumartist%" -T "COMMENT=EAC Secure Mode, Test & Copy, AccurateRip, FLAC -8" %source%
TOC of the extracted CD
Track | Start | Length | Start sector | End sector
---------------------------------------------------------
1 | 0:00.00 | 3:38.33 | 0 | 16382
2 | 3:38.33 | 16:21.65 | 16383 | 90022
3 | 20:00.23 | 8:26.49 | 90023 | 128021
4 | 28:26.72 | 10:51.45 | 128022 | 176891
Track 1
Filename D:\_EAC\John Coltrane - Expression (1967) [FLAC] {Impulse!-Verve Originals rel 2011}\01 - Ogunde.wav
Pre-gap length 0:00:02.00
Peak level 100.0 %
Extraction speed 1.1 X
Track quality 99.9 %
Test CRC CA408532
Copy CRC CA408532
Accurately ripped (confidence 14) [6457F8FF] (AR v2)
Copy OK
Track 2
Filename D:\_EAC\John Coltrane - Expression (1967) [FLAC] {Impulse!-Verve Originals rel 2011}\02 - To Be.wav
Peak level 98.6 %
Extraction speed 1.8 X
Track quality 100.0 %
Test CRC 3B1030EF
Copy CRC 3B1030EF
Accurately ripped (confidence 13) [10B49800] (AR v2)
Copy OK
Track 3
Filename D:\_EAC\John Coltrane - Expression (1967) [FLAC] {Impulse!-Verve Originals rel 2011}\03 - Offering.wav
Peak level 86.1 %
Extraction speed 2.0 X
Track quality 100.0 %
Test CRC 29DB2586
Copy CRC 29DB2586
Accurately ripped (confidence 14) [7E444C41] (AR v2)
Copy OK
Track 4
Filename D:\_EAC\John Coltrane - Expression (1967) [FLAC] {Impulse!-Verve Originals rel 2011}\04 - Expression.wav
Peak level 100.0 %
Extraction speed 2.3 X
Track quality 100.0 %
Test CRC FE4FE97A
Copy CRC FE4FE97A
Accurately ripped (confidence 14) [E26328AF] (AR v2)
Copy OK
All tracks accurately ripped
No errors occurred
End of status report
==== Log checksum 5CDD801B1D991C2DB2A4CE6F165788AB6E0C89A3A73D33D4F29D4CF7E0B310EF ====
 
Содержание индексной карты (.CUE)
REM GENRE Jazz
REM DATE 1967
REM DISCID 1B093604
REM COMMENT "ExactAudioCopy v1.1"
PERFORMER "John Coltrane"
TITLE "Expression"
FILE "01 - Ogunde.wav" WAVE
TRACK 01 AUDIO
TITLE "Ogunde"
PERFORMER "John Coltrane"
FLAGS DCP
INDEX 01 00:00:00
FILE "02 - To Be.wav" WAVE
TRACK 02 AUDIO
TITLE "To Be"
PERFORMER "John Coltrane"
FLAGS DCP
INDEX 01 00:00:00
FILE "03 - Offering.wav" WAVE
TRACK 03 AUDIO
TITLE "Offering"
PERFORMER "John Coltrane"
FLAGS DCP
INDEX 01 00:00:00
FILE "04 - Expression.wav" WAVE
TRACK 04 AUDIO
TITLE "Expression"
PERFORMER "John Coltrane"
FLAGS DCP
INDEX 01 00:00:00
По всем вопросам пишите личное сообщение пользователю M0p94ok.
19:42
171
Нет комментариев. Ваш будет первым!