Вы используете незарегистрированную версию компонента "Вкладки"!

Поиск

(Avant-Garde Jazz, Modal Jazz) [CD] Pharoah Sanders - Live At The East (1971) - 2007, FLAC (tracks+.cue), lossless

(Avant-Garde Jazz, Modal Jazz) [CD] Pharoah Sanders - Live At The East (1971) - 2007, FLAC (tracks+.cue), lossless
Треклист:
Pharoah Sanders - Live At The East (1971) Жанр: Avant-Garde Jazz, Modal Jazz
Носитель: CD
Страна-производитель диска (релиза): Japan
Год издания: 2007
Издатель (лейбл): Impulse!/Universal Japan
Номер по каталогу: UCCI-9133
Аудиокодек: FLAC (*.flac)
Тип рипа: tracks+.cue
Битрейт аудио: lossless
Продолжительность: 43:12
Источник (релизер): ruskaval
Наличие сканов в содержимом раздачи: да
Треклист:
01. Healing Song (21:46)
02. Memories of J.W.Coltrane (12:52)
03. Lumkili (8:35)
Personnel:
Pharoah Sanders - tenor sax
Harold Vic - tenor sax, voices
Marvin Peterson - trumpet
Carlos Garnett - flute, voices
Joseph Bonner - piano, harmonium
Stanley Clarke - bass
Cecil McBee - bass
Norman Connors - drums
Lawrence Killian - conga drums, bailophone
Billy Hart - drums
 
 
Лог создания рипа
Exact Audio Copy V1.0 beta 2 from 29. April 2011
EAC extraction logfile from 17. September 2011, 7:06
Pharoah Sanders / Live At The East
Used drive : _NEC DVD_RW ND-3520A Adapter: 1 ID: 0
Read mode : Secure
Utilize accurate stream : Yes
Defeat audio cache : Yes
Make use of C2 pointers : No
Read offset correction : 48
Overread into Lead-In and Lead-Out : No
Fill up missing offset samples with silence : Yes
Delete leading and trailing silent blocks : No
Null samples used in CRC calculations : Yes
Used interface : Installed external ASPI interface
Gap handling : Appended to previous track
Used output format : User Defined Encoder
Selected bitrate : 1024 kBit/s
Quality : High
Add ID3 tag : No
Command line compressor : C:\Program Files\Exact Audio Copy\FLAC\FLAC.EXE
Additional command line options : -8 -V -T "ARTIST=%artist%" -T "TITLE=%title%" -T "ALBUM=%albumtitle%" -T "DATE=%year%" -T "TRACKNUMBER=%tracknr%" -T "TOTALTRACKS=%numtracks%" -T "GENRE=%genre%" -T "ALBUMARTIST=%albumartist%" -T "ALBUM ARTIST=%albumartist%
TOC of the extracted CD
Track | Start | Length | Start sector | End sector
---------------------------------------------------------
1 | 0:00.00 | 21:45.65 | 0 | 97939
2 | 21:45.65 | 12:51.50 | 97940 | 155814
3 | 34:37.40 | 8:34.60 | 155815 | 194424
Track 1
Filename C:\Documents and Settings\All Users\Documents\Uploads\Ex\Pharoah Sanders - Live At The East (1971) [FLAC] {Japanese Reissue}\01 - Healing Song.wav
Pre-gap length 0:00:02.00
Peak level 99.8 %
Extraction speed 4.8 X
Track quality 100.0 %
Test CRC 9D3BDA92
Copy CRC 9D3BDA92
Track not present in AccurateRip database
Copy OK
Track 2
Filename C:\Documents and Settings\All Users\Documents\Uploads\Ex\Pharoah Sanders - Live At The East (1971) [FLAC] {Japanese Reissue}\02 - Memories of J.W.Coltrane.wav
Pre-gap length 0:00:06.29
Peak level 77.2 %
Extraction speed 6.1 X
Track quality 100.0 %
Test CRC 823EE2A3
Copy CRC 823EE2A3
Track not present in AccurateRip database
Copy OK
Track 3
Filename C:\Documents and Settings\All Users\Documents\Uploads\Ex\Pharoah Sanders - Live At The East (1971) [FLAC] {Japanese Reissue}\03 - Lumkili.wav
Pre-gap length 0:00:01.59
Peak level 84.2 %
Extraction speed 6.6 X
Track quality 100.0 %
Test CRC 1C7565C0
Copy CRC 1C7565C0
Track not present in AccurateRip database
Copy OK
None of the tracks are present in the AccurateRip database
No errors occurred
End of status report
==== Log checksum D9BB963615C9640B637260AC8341BCA2E718497C39A4CAF56FFF69498D5105F1 ====
 
Содержание индексной карты (.CUE)
REM GENRE Jazz
REM DATE 1971
REM DISCID 1F0A2003
REM COMMENT "ExactAudioCopy v1.0b2"
PERFORMER "Pharoah Sanders"
TITLE "Live At The East"
FILE "01 - Healing Song.wav" WAVE
TRACK 01 AUDIO
TITLE "Healing Song"
PERFORMER "Pharoah Sanders"
INDEX 01 00:00:00
TRACK 02 AUDIO
TITLE "Memories of J.W.Coltrane"
PERFORMER "Pharoah Sanders"
INDEX 00 21:39:36
FILE "02 - Memories of J.W.Coltrane.wav" WAVE
INDEX 01 00:00:00
TRACK 03 AUDIO
TITLE "Lumkili"
PERFORMER "Pharoah Sanders"
INDEX 00 12:49:66
FILE "03 - Lumkili.wav" WAVE
INDEX 01 00:00:00
По всем вопросам пишите личное сообщение пользователю M0p94ok.
19:41
192
Нет комментариев. Ваш будет первым!