Вы используете незарегистрированную версию компонента "Вкладки"!

Поиск

(Avant-Garde Jazz, Free Jazz) [CD] Hal Russell, Michael Staron, Sparrow & Rick Shandling - Albert's Lullaby - 2000, FLAC (tracks+.cue), lossless

(Avant-Garde Jazz, Free Jazz) [CD] Hal Russell, Michael Staron, Sparrow & Rick Shandling - Albert's Lullaby - 2000, FLAC (tracks+.cue), lossless
Треклист:
Hal Russell, Michael Staron, Sparrow & Rick Shandling / Albert's Lullaby
Жанр: Avant-Garde Jazz, Free Jazz
Носитель: CD
Страна-производитель диска (релиза): US
Год издания: 2000
Издатель (лейбл): Southport Records
Номер по каталогу: S-SSD 0077
Аудиокодек: FLAC (*.flac)
Тип рипа: tracks+.cue
Битрейт аудио: lossless
Продолжительность: 73:45
Источник (релизер): cd
Наличие сканов в содержимом раздачи: нет
Треклист:
01. Edge of Night 6:01
02. Albert's Lullaby 3:06
03. Vibrations 5:29
04. Kyrie and Agnus Del 6:51
05. Who's There 25:19
06. Ghosts 3:53
07. Aural 14:47
08. ''W'' 6:58
09. To Groove 1:17
 
Лог создания рипа
Exact Audio Copy V1.0 beta 3 from 29. August 2011
EAC extraction logfile from 10. December 2014, 10:18
Hal Russell / Albert's Lullaby
Used drive : ASUS DRW-24F1ST a Adapter: 0 ID: 0
Read mode : Secure
Utilize accurate stream : Yes
Defeat audio cache : Yes
Make use of C2 pointers : No
Read offset correction : 6
Overread into Lead-In and Lead-Out : No
Fill up missing offset samples with silence : Yes
Delete leading and trailing silent blocks : No
Null samples used in CRC calculations : Yes
Used interface : Native Win32 interface for Win NT & 2000
Gap handling : Appended to previous track
Used output format : User Defined Encoder
Selected bitrate : 320 kBit/s
Quality : High
Add ID3 tag : No
Command line compressor : D:\Programs\Exact Audio Copy\Flac\flac.exe
Additional command line options : -V -8 -T "Genre=%genre%" -T "Artist=%artist%" -T "Title=%title%" -T "Album=%albumtitle%" -T "Date=%year%" -T "Tracknumber=%tracknr%" -T "Comment=%comment%" %source%
TOC of the extracted CD
Track | Start | Length | Start sector | End sector
---------------------------------------------------------
1 | 0:00.00 | 6:01.73 | 0 | 27147
2 | 6:01.73 | 3:06.67 | 27148 | 41164
3 | 9:08.65 | 5:29.00 | 41165 | 65839
4 | 14:37.65 | 6:51.69 | 65840 | 96733
5 | 21:29.59 | 25:19.32 | 96734 | 210690
6 | 46:49.16 | 3:53.10 | 210691 | 228175
7 | 50:42.26 | 14:47.35 | 228176 | 294735
8 | 65:29.61 | 6:58.10 | 294736 | 326095
9 | 72:27.71 | 1:17.65 | 326096 | 331935
Track 1
Filename D:\EAC\01 Edge of Night.wav
Pre-gap length 0:00:02.00
Peak level 100.0 %
Extraction speed 5.2 X
Track quality 100.0 %
Test CRC 86D33003
Copy CRC 86D33003
Copy OK
Track 2
Filename D:\EAC\02 Albert's Lullaby.wav
Peak level 100.0 %
Extraction speed 4.5 X
Track quality 99.9 %
Test CRC D9590ECF
Copy CRC D9590ECF
Copy OK
Track 3
Filename D:\EAC\03 Vibrations.wav
Peak level 100.0 %
Extraction speed 5.6 X
Track quality 99.9 %
Test CRC 34CC701D
Copy CRC 34CC701D
Copy OK
Track 4
Filename D:\EAC\04 Kyrie and Agnus Del.wav
Peak level 91.0 %
Extraction speed 6.9 X
Track quality 100.0 %
Test CRC 43F1659D
Copy CRC 43F1659D
Copy OK
Track 5
Filename D:\EAC\05 Who's There.wav
Peak level 100.0 %
Extraction speed 8.6 X
Track quality 100.0 %
Test CRC 1F2CC4E6
Copy CRC 1F2CC4E6
Copy OK
Track 6
Filename D:\EAC\06 Ghosts.wav
Pre-gap length 0:00:00.01
Peak level 64.1 %
Extraction speed 8.5 X
Track quality 100.0 %
Test CRC 908C41EA
Copy CRC 908C41EA
Copy OK
Track 7
Filename D:\EAC\07 Aural.wav
Pre-gap length 0:00:00.01
Peak level 89.1 %
Extraction speed 10.1 X
Track quality 100.0 %
Test CRC C6C2F595
Copy CRC C6C2F595
Copy OK
Track 8
Filename D:\EAC\08 ''W''.wav
Pre-gap length 0:00:00.01
Peak level 89.8 %
Extraction speed 10.2 X
Track quality 100.0 %
Test CRC 9A7AD5E4
Copy CRC 9A7AD5E4
Copy OK
Track 9
Filename D:\EAC\09 To Groove.wav
Peak level 100.0 %
Extraction speed 7.5 X
Track quality 100.0 %
Test CRC F51EE800
Copy CRC F51EE800
Copy OK
No errors occurred
End of status report
==== Log checksum E7E29728538F585D054D9B4372F72D347870089C345B7BEE3B29B3E4786E0D22 ====
 
Содержание индексной карты (.CUE)
REM GENRE Jazz
REM DATE 2000
REM DISCID 78114909
REM COMMENT "ExactAudioCopy v1.0b3"
CATALOG 0000000000000
PERFORMER "Hal Russell"
TITLE "Albert's Lullaby"
FILE "01 Edge of Night.wav" WAVE
TRACK 01 AUDIO
TITLE "Edge of Night"
PERFORMER "Hal Russell"
INDEX 01 00:00:00
FILE "02 Albert's Lullaby.wav" WAVE
TRACK 02 AUDIO
TITLE "Albert's Lullaby"
PERFORMER "Hal Russell"
INDEX 01 00:00:00
FILE "03 Vibrations.wav" WAVE
TRACK 03 AUDIO
TITLE "Vibrations"
PERFORMER "Hal Russell"
INDEX 01 00:00:00
FILE "04 Kyrie and Agnus Del.wav" WAVE
TRACK 04 AUDIO
TITLE "Kyrie and Agnus Del"
PERFORMER "Hal Russell"
INDEX 01 00:00:00
FILE "05 Who's There.wav" WAVE
TRACK 05 AUDIO
TITLE "Who's There?"
PERFORMER "Hal Russell"
INDEX 01 00:00:00
TRACK 06 AUDIO
TITLE "Ghosts"
PERFORMER "Hal Russell"
INDEX 00 25:19:31
FILE "06 Ghosts.wav" WAVE
INDEX 01 00:00:00
TRACK 07 AUDIO
TITLE "Aural"
PERFORMER "Hal Russell"
INDEX 00 03:53:09
FILE "07 Aural.wav" WAVE
INDEX 01 00:00:00
TRACK 08 AUDIO
TITLE "'W'"
PERFORMER "Hal Russell"
INDEX 00 14:47:34
FILE "08 ''W''.wav" WAVE
INDEX 01 00:00:00
FILE "09 To Groove.wav" WAVE
TRACK 09 AUDIO
TITLE "To Groove"
PERFORMER "Hal Russell"
INDEX 01 00:00:00
 
Состав
Hal Russell - sax, trumpet
Michael Staron - bass
Sparrow - piano
Rick Shandling - drums
По всем вопросам пишите личное сообщение пользователю M0p94ok.
07:07
159
Нет комментариев. Ваш будет первым!