Поиск

(Avant-Garde Jazz / Modern Free) [CD] Jeb Bishop + Jorrit Dijkstra - 1000 Words - 2012 [Driff Records CD1202], FLAC (tracks+.cue), lossless

(Avant-Garde Jazz / Modern Free) [CD] Jeb Bishop + Jorrit Dijkstra - 1000 Words - 2012 [Driff Records CD1202], FLAC (tracks+.cue), lossless
Треклист:
Jeb Bishop + Jorrit Dijkstra - 1000 Words
Жанр: Avant-Garde Jazz / Modern Free
Носитель: CD
Страна-производитель диска (релиза): USA
Год издания: 2012
Издатель (лейбл): Driff Records
Номер по каталогу: CD1202
Аудиокодек: FLAC (*.flac)
Тип рипа: tracks+.cue
Битрейт аудио: lossless
Продолжительность: 00:46:26
Источник (релизер): what.cd / спасибо 6060842
Наличие сканов в содержимом раздачи: нет
Треклист:
1. 1000 Words (04:57)
2. Bone Narrow (04:36)
3. Ice (04:50)
4. Klopgeest (01:47)
5. Standpipe (02:53)
6. Duo Stukje (03:28)
7. Drainpipe (03:26)
8. March (03:01)
9. Dons (06:04)
10. Strobe (04:34)
11. Stovepipe (02:39)
12. El Norte (04:11)
Доп. информация:
Musicians:
Jeb Bishop - trombone, mutes
Jorrit Dijkstra - alto saxophone, mutes
Recorded on July 3rd, 2011 by Steve Stokes at Strobe Recording Studio, Chicago, IL
Jorrit Dijkstra Official Site
Jeb Bishop Official Site
Jeb Bishop from Wikipedia, the free encyclopedia
 
... photo ...
Лог создания рипа
X Lossless Decoder version 20130407 (143.0)
XLD extraction logfile from 2013-05-18 17:44:52 +0400
Jeb Bishop, Jorrit Dijkstra / 1000 Words
Used drive : HL-DT-ST DVDRW GX30N (revision RP09)
Media type : Pressed CD
Ripper mode : XLD Secure Ripper
Disable audio cache : OK for the drive with a cache less than 1375KiB
Make use of C2 pointers : NO
Read offset correction : 6
Max retry count : 20
Gap status : Analyzed, Appended
TOC of the extracted CD
Track | Start | Length | Start sector | End sector
---------------------------------------------------------
1 | 00:00:00 | 04:57:27 | 0 | 22301
2 | 04:57:27 | 04:35:51 | 22302 | 42977
3 | 09:33:03 | 04:50:04 | 42978 | 64731
4 | 14:23:07 | 01:46:43 | 64732 | 72724
5 | 16:09:50 | 02:53:14 | 72725 | 85713
6 | 19:02:64 | 03:28:22 | 85714 | 101335
7 | 22:31:11 | 03:26:24 | 101336 | 116809
8 | 25:57:35 | 03:01:25 | 116810 | 130409
9 | 28:58:60 | 06:03:42 | 130410 | 157676
10 | 35:02:27 | 04:33:71 | 157677 | 178222
11 | 39:36:23 | 02:38:71 | 178223 | 190143
12 | 42:15:19 | 04:11:11 | 190144 | 208979
AccurateRip Summary
Disc not found in AccurateRip DB.
All Tracks
Album gain : -3.68 dB
Peak : 0.988708
Statistics
Read error : 0
Jitter error (maybe fixed) : 0
Retry sector count : 0
Damaged sector count : 0
Track 01
Filename : /Users/anch/Music/FLAC/Jeb Bishop, Jorrit Dijkstra - 2012 - 1000 Words [FLAC]/01 - 1000 Words.flac
/Users/anch/Music/FLAC/Jeb Bishop, Jorrit Dijkstra - 2012 - 1000 Words [MP3 320]/01 - 1000 Words.mp3
/Users/anch/Music/FLAC/Jeb Bishop, Jorrit Dijkstra - 2012 - 1000 Words [MP3 V0]/01 - 1000 Words.mp3
Pre-gap length : 00:02:00
Track gain : -4.97 dB
Peak : 0.988678
CRC32 hash (test run) : F7FCDEC6
CRC32 hash : F7FCDEC6
CRC32 hash (skip zero) : 22D18689
AccurateRip v1 signature : AC5A948F
AccurateRip v2 signature : D09033EA
->Track not present in AccurateRip database.
Statistics
Read error : 0
Jitter error (maybe fixed) : 0
Retry sector count : 0
Damaged sector count : 0
Track 02
Filename : /Users/anch/Music/FLAC/Jeb Bishop, Jorrit Dijkstra - 2012 - 1000 Words [FLAC]/02 - Bone Narrow.flac
/Users/anch/Music/FLAC/Jeb Bishop, Jorrit Dijkstra - 2012 - 1000 Words [MP3 320]/02 - Bone Narrow.mp3
/Users/anch/Music/FLAC/Jeb Bishop, Jorrit Dijkstra - 2012 - 1000 Words [MP3 V0]/02 - Bone Narrow.mp3
Track gain : -3.49 dB
Peak : 0.988678
CRC32 hash (test run) : ED029849
CRC32 hash : ED029849
CRC32 hash (skip zero) : F2C0A53A
AccurateRip v1 signature : 3FE30399
AccurateRip v2 signature : C278A258
->Track not present in AccurateRip database.
Statistics
Read error : 0
Jitter error (maybe fixed) : 0
Retry sector count : 0
Damaged sector count : 0
Track 03
Filename : /Users/anch/Music/FLAC/Jeb Bishop, Jorrit Dijkstra - 2012 - 1000 Words [FLAC]/03 - Ice.flac
/Users/anch/Music/FLAC/Jeb Bishop, Jorrit Dijkstra - 2012 - 1000 Words [MP3 320]/03 - Ice.mp3
/Users/anch/Music/FLAC/Jeb Bishop, Jorrit Dijkstra - 2012 - 1000 Words [MP3 V0]/03 - Ice.mp3
Track gain : -3.28 dB
Peak : 0.988678
CRC32 hash (test run) : 9A6A10F8
CRC32 hash : 9A6A10F8
CRC32 hash (skip zero) : 1782CE5B
AccurateRip v1 signature : 5622B223
AccurateRip v2 signature : 00A1D7E1
->Track not present in AccurateRip database.
Statistics
Read error : 0
Jitter error (maybe fixed) : 0
Retry sector count : 0
Damaged sector count : 0
Track 04
Filename : /Users/anch/Music/FLAC/Jeb Bishop, Jorrit Dijkstra - 2012 - 1000 Words [FLAC]/04 - Klopgeest.flac
/Users/anch/Music/FLAC/Jeb Bishop, Jorrit Dijkstra - 2012 - 1000 Words [MP3 320]/04 - Klopgeest.mp3
/Users/anch/Music/FLAC/Jeb Bishop, Jorrit Dijkstra - 2012 - 1000 Words [MP3 V0]/04 - Klopgeest.mp3
Track gain : -3.71 dB
Peak : 0.988647
CRC32 hash (test run) : 03DDCB1A
CRC32 hash : 03DDCB1A
CRC32 hash (skip zero) : A7AA5F3A
AccurateRip v1 signature : FA37784C
AccurateRip v2 signature : 40FC8DA1
->Track not present in AccurateRip database.
Statistics
Read error : 0
Jitter error (maybe fixed) : 0
Retry sector count : 0
Damaged sector count : 0
Track 05
Filename : /Users/anch/Music/FLAC/Jeb Bishop, Jorrit Dijkstra - 2012 - 1000 Words [FLAC]/05 - Standpipe.flac
/Users/anch/Music/FLAC/Jeb Bishop, Jorrit Dijkstra - 2012 - 1000 Words [MP3 320]/05 - Standpipe.mp3
/Users/anch/Music/FLAC/Jeb Bishop, Jorrit Dijkstra - 2012 - 1000 Words [MP3 V0]/05 - Standpipe.mp3
Track gain : -0.92 dB
Peak : 0.910004
CRC32 hash (test run) : 1633C06C
CRC32 hash : 1633C06C
CRC32 hash (skip zero) : 6DF4CC94
AccurateRip v1 signature : E4B97316
AccurateRip v2 signature : C654B7A7
->Track not present in AccurateRip database.
Statistics
Read error : 0
Jitter error (maybe fixed) : 0
Retry sector count : 0
Damaged sector count : 0
Track 06
Filename : /Users/anch/Music/FLAC/Jeb Bishop, Jorrit Dijkstra - 2012 - 1000 Words [FLAC]/06 - Duo Stukje.flac
/Users/anch/Music/FLAC/Jeb Bishop, Jorrit Dijkstra - 2012 - 1000 Words [MP3 320]/06 - Duo Stukje.mp3
/Users/anch/Music/FLAC/Jeb Bishop, Jorrit Dijkstra - 2012 - 1000 Words [MP3 V0]/06 - Duo Stukje.mp3
Track gain : -4.12 dB
Peak : 0.988708
CRC32 hash (test run) : AD1A21AD
CRC32 hash : AD1A21AD
CRC32 hash (skip zero) : DBBB0ACB
AccurateRip v1 signature : 745EDA16
AccurateRip v2 signature : 10D35B83
->Track not present in AccurateRip database.
Statistics
Read error : 0
Jitter error (maybe fixed) : 0
Retry sector count : 0
Damaged sector count : 0
Track 07
Filename : /Users/anch/Music/FLAC/Jeb Bishop, Jorrit Dijkstra - 2012 - 1000 Words [FLAC]/07 - Drainpipe.flac
/Users/anch/Music/FLAC/Jeb Bishop, Jorrit Dijkstra - 2012 - 1000 Words [MP3 320]/07 - Drainpipe.mp3
/Users/anch/Music/FLAC/Jeb Bishop, Jorrit Dijkstra - 2012 - 1000 Words [MP3 V0]/07 - Drainpipe.mp3
Track gain : -3.21 dB
Peak : 0.988647
CRC32 hash (test run) : 7D1D6C6D
CRC32 hash : 7D1D6C6D
CRC32 hash (skip zero) : C1170D5B
AccurateRip v1 signature : F9F2E983
AccurateRip v2 signature : B1EB6217
->Track not present in AccurateRip database.
Statistics
Read error : 0
Jitter error (maybe fixed) : 0
Retry sector count : 0
Damaged sector count : 0
Track 08
Filename : /Users/anch/Music/FLAC/Jeb Bishop, Jorrit Dijkstra - 2012 - 1000 Words [FLAC]/08 - March.flac
/Users/anch/Music/FLAC/Jeb Bishop, Jorrit Dijkstra - 2012 - 1000 Words [MP3 320]/08 - March.mp3
/Users/anch/Music/FLAC/Jeb Bishop, Jorrit Dijkstra - 2012 - 1000 Words [MP3 V0]/08 - March.mp3
Track gain : -4.53 dB
Peak : 0.988678
CRC32 hash (test run) : E48021E8
CRC32 hash : E48021E8
CRC32 hash (skip zero) : 501029EC
AccurateRip v1 signature : E5244220
AccurateRip v2 signature : 2AA89182
->Track not present in AccurateRip database.
Statistics
Read error : 0
Jitter error (maybe fixed) : 0
Retry sector count : 0
Damaged sector count : 0
Track 09
Filename : /Users/anch/Music/FLAC/Jeb Bishop, Jorrit Dijkstra - 2012 - 1000 Words [FLAC]/09 - Dons.flac
/Users/anch/Music/FLAC/Jeb Bishop, Jorrit Dijkstra - 2012 - 1000 Words [MP3 320]/09 - Dons.mp3
/Users/anch/Music/FLAC/Jeb Bishop, Jorrit Dijkstra - 2012 - 1000 Words [MP3 V0]/09 - Dons.mp3
Track gain : -2.40 dB
Peak : 0.988617
CRC32 hash (test run) : 9732E375
CRC32 hash : 9732E375
CRC32 hash (skip zero) : 1D8E7900
AccurateRip v1 signature : 2BEA1EA5
AccurateRip v2 signature : 28E7C305
->Track not present in AccurateRip database.
Statistics
Read error : 0
Jitter error (maybe fixed) : 0
Retry sector count : 0
Damaged sector count : 0
Track 10
Filename : /Users/anch/Music/FLAC/Jeb Bishop, Jorrit Dijkstra - 2012 - 1000 Words [FLAC]/10 - Strobe.flac
/Users/anch/Music/FLAC/Jeb Bishop, Jorrit Dijkstra - 2012 - 1000 Words [MP3 320]/10 - Strobe.mp3
/Users/anch/Music/FLAC/Jeb Bishop, Jorrit Dijkstra - 2012 - 1000 Words [MP3 V0]/10 - Strobe.mp3
Track gain : -3.42 dB
Peak : 0.988678
CRC32 hash (test run) : 3EAF7DBA
CRC32 hash : 3EAF7DBA
CRC32 hash (skip zero) : A81F5278
AccurateRip v1 signature : 29972A0F
AccurateRip v2 signature : B57E7DCF
->Track not present in AccurateRip database.
Statistics
Read error : 0
Jitter error (maybe fixed) : 0
Retry sector count : 0
Damaged sector count : 0
Track 11
Filename : /Users/anch/Music/FLAC/Jeb Bishop, Jorrit Dijkstra - 2012 - 1000 Words [FLAC]/11 - Stovepipe.flac
/Users/anch/Music/FLAC/Jeb Bishop, Jorrit Dijkstra - 2012 - 1000 Words [MP3 320]/11 - Stovepipe.mp3
/Users/anch/Music/FLAC/Jeb Bishop, Jorrit Dijkstra - 2012 - 1000 Words [MP3 V0]/11 - Stovepipe.mp3
Track gain : -0.39 dB
Peak : 0.621704
CRC32 hash (test run) : 9F7D34D8
CRC32 hash : 9F7D34D8
CRC32 hash (skip zero) : F215BE64
AccurateRip v1 signature : FFE1E898
AccurateRip v2 signature : C6F4A262
->Track not present in AccurateRip database.
Statistics
Read error : 0
Jitter error (maybe fixed) : 0
Retry sector count : 0
Damaged sector count : 0
Track 12
Filename : /Users/anch/Music/FLAC/Jeb Bishop, Jorrit Dijkstra - 2012 - 1000 Words [FLAC]/12 - El Norte.flac
/Users/anch/Music/FLAC/Jeb Bishop, Jorrit Dijkstra - 2012 - 1000 Words [MP3 320]/12 - El Norte.mp3
/Users/anch/Music/FLAC/Jeb Bishop, Jorrit Dijkstra - 2012 - 1000 Words [MP3 V0]/12 - El Norte.mp3
Track gain : -3.93 dB
Peak : 0.988678
CRC32 hash (test run) : 0B3ADF2F
CRC32 hash : 0B3ADF2F
CRC32 hash (skip zero) : 0EFD2E79
AccurateRip v1 signature : BE9BDF4F
AccurateRip v2 signature : 580CED78
->Track not present in AccurateRip database.
Statistics
Read error : 0
Jitter error (maybe fixed) : 0
Retry sector count : 0
Damaged sector count : 0
No errors occurred
End of status report
 
Содержание индексной карты (.CUE)
TITLE "1000 Words"
PERFORMER "Jeb Bishop, Jorrit Dijkstra"
REM GENRE "Free Jazz"
REM DATE "2012"
REM DISCID AD0AE20C
REM REPLAYGAIN_ALBUM_GAIN -3.68 dB
REM REPLAYGAIN_ALBUM_PEAK 0.988708
FILE "01 - 1000 Words.flac" WAVE
TRACK 01 AUDIO
TITLE "1000 Words"
PERFORMER "Jeb Bishop, Jorrit Dijkstra"
FLAGS DCP
REM REPLAYGAIN_TRACK_GAIN -4.97 dB
REM REPLAYGAIN_TRACK_PEAK 0.988678
INDEX 01 00:00:00
FILE "02 - Bone Narrow.flac" WAVE
TRACK 02 AUDIO
TITLE "Bone Narrow"
PERFORMER "Jeb Bishop, Jorrit Dijkstra"
FLAGS DCP
REM REPLAYGAIN_TRACK_GAIN -3.49 dB
REM REPLAYGAIN_TRACK_PEAK 0.988678
INDEX 01 00:00:00
FILE "03 - Ice.flac" WAVE
TRACK 03 AUDIO
TITLE "Ice"
PERFORMER "Jeb Bishop, Jorrit Dijkstra"
FLAGS DCP
REM REPLAYGAIN_TRACK_GAIN -3.28 dB
REM REPLAYGAIN_TRACK_PEAK 0.988678
INDEX 01 00:00:00
FILE "04 - Klopgeest.flac" WAVE
TRACK 04 AUDIO
TITLE "Klopgeest"
PERFORMER "Jeb Bishop, Jorrit Dijkstra"
FLAGS DCP
REM REPLAYGAIN_TRACK_GAIN -3.71 dB
REM REPLAYGAIN_TRACK_PEAK 0.988647
INDEX 01 00:00:00
FILE "05 - Standpipe.flac" WAVE
TRACK 05 AUDIO
TITLE "Standpipe"
PERFORMER "Jeb Bishop, Jorrit Dijkstra"
FLAGS DCP
REM REPLAYGAIN_TRACK_GAIN -0.92 dB
REM REPLAYGAIN_TRACK_PEAK 0.910004
INDEX 01 00:00:00
FILE "06 - Duo Stukje.flac" WAVE
TRACK 06 AUDIO
TITLE "Duo Stukje"
PERFORMER "Jeb Bishop, Jorrit Dijkstra"
FLAGS DCP
REM REPLAYGAIN_TRACK_GAIN -4.12 dB
REM REPLAYGAIN_TRACK_PEAK 0.988708
INDEX 01 00:00:00
FILE "07 - Drainpipe.flac" WAVE
TRACK 07 AUDIO
TITLE "Drainpipe"
PERFORMER "Jeb Bishop, Jorrit Dijkstra"
FLAGS DCP
REM REPLAYGAIN_TRACK_GAIN -3.21 dB
REM REPLAYGAIN_TRACK_PEAK 0.988647
INDEX 01 00:00:00
FILE "08 - March.flac" WAVE
TRACK 08 AUDIO
TITLE "March"
PERFORMER "Jeb Bishop, Jorrit Dijkstra"
FLAGS DCP
REM REPLAYGAIN_TRACK_GAIN -4.53 dB
REM REPLAYGAIN_TRACK_PEAK 0.988678
INDEX 01 00:00:00
FILE "09 - Dons.flac" WAVE
TRACK 09 AUDIO
TITLE "Dons"
PERFORMER "Jeb Bishop, Jorrit Dijkstra"
FLAGS DCP
REM REPLAYGAIN_TRACK_GAIN -2.40 dB
REM REPLAYGAIN_TRACK_PEAK 0.988617
INDEX 01 00:00:00
FILE "10 - Strobe.flac" WAVE
TRACK 10 AUDIO
TITLE "Strobe"
PERFORMER "Jeb Bishop, Jorrit Dijkstra"
FLAGS DCP
REM REPLAYGAIN_TRACK_GAIN -3.42 dB
REM REPLAYGAIN_TRACK_PEAK 0.988678
INDEX 01 00:00:00
FILE "11 - Stovepipe.flac" WAVE
TRACK 11 AUDIO
TITLE "Stovepipe"
PERFORMER "Jeb Bishop, Jorrit Dijkstra"
FLAGS DCP
REM REPLAYGAIN_TRACK_GAIN -0.39 dB
REM REPLAYGAIN_TRACK_PEAK 0.621704
INDEX 01 00:00:00
FILE "12 - El Norte.flac" WAVE
TRACK 12 AUDIO
TITLE "El Norte"
PERFORMER "Jeb Bishop, Jorrit Dijkstra"
FLAGS DCP
REM REPLAYGAIN_TRACK_GAIN -3.93 dB
REM REPLAYGAIN_TRACK_PEAK 0.988678
INDEX 01 00:00:00
 
auCDtect Task Manager
-----------------------
DON'T MODIFY THIS FILE
-----------------------
PERFORMER: auCDtect Task Manager, ver. 1.5.1RC6 build 1.5.1.7
Copyright (c) 2008-2010 y-soft. All rights reserved
http://y-soft.org
ANALYZER: auCDtect: CD records authenticity detector, version 0.8.2
Copyright (c) 2004 Oleg Berngardt. All rights reserved.
Copyright (c) 2004 Alexander Djourik. All rights reserved.
FILE: 12 - El Norte.flac
Size: 19947399 Hash: C0DD33B2E46BA34550591DFBF24B1ED4 Accuracy: -m0
Conclusion: CDDA 100%
Signature: D85BCF66E307BB208DF6F2CBFBE8AD984ECE9EEC
FILE: 11 - Stovepipe.flac
Size: 9986820 Hash: FD8EBE9FBD23B1853260383C8D3C741F Accuracy: -m0
Conclusion: CDDA 100%
Signature: 52FD7B57808B376557A810A721C65B09877D441C
FILE: 10 - Strobe.flac
Size: 17715989 Hash: 7E350D2AF4AD5B7EC2E99CA041F093BE Accuracy: -m0
Conclusion: CDDA 100%
Signature: 2DEB7771C588FAA97242A2D7F66619823E00F3F1
FILE: 09 - Dons.flac
Size: 24026666 Hash: 8DC3F13EDB5110BBA684D1E7FA2BAB0A Accuracy: -m0
Conclusion: CDDA 99%
Signature: 5C03B93C89EAD067B205763EF771ECC8B827260D
FILE: 08 - March.flac
Size: 14553485 Hash: 4F401D21A7DB68B380B6FA51D68E79BA Accuracy: -m0
Conclusion: CDDA 100%
Signature: CCD9A354F9A5ED64120CF3DDAF613282D0BB5A73
FILE: 07 - Drainpipe.flac
Size: 13384371 Hash: A61342B74AF1BD259719AE1DA3397C5D Accuracy: -m0
Conclusion: CDDA 100%
Signature: 81B6C8EE9BCA3D136EEAB9595AB9AF5AFE56C3CD
FILE: 06 - Duo Stukje.flac
Size: 15714607 Hash: 2FE6BBB2575E36110B9F2BE80390614A Accuracy: -m0
Conclusion: CDDA 100%
Signature: 90F42610BD5798F8D918DD5F79AC472D4F1AC29C
FILE: 05 - Standpipe.flac
Size: 10871807 Hash: DF58E3BE36AE788F70FCDAD7022CB1A4 Accuracy: -m0
Conclusion: CDDA 100%
Signature: B0D3D86B8222B7DF2AC614DE59AB024A4A75582A
FILE: 04 - Klopgeest.flac
Size: 8865667 Hash: 6C4E03D52AF19726FB47882A2594913B Accuracy: -m0
Conclusion: CDDA 100%
Signature: F37C40B3199D8DCAD34A3B2350895485A513955B
FILE: 03 - Ice.flac
Size: 17732361 Hash: 2A6ACDFD3BBC37145880A4485D4BC246 Accuracy: -m0
Conclusion: CDDA 100%
Signature: C0E7D0AAB8AE8606E7276E26DC15B30BE142978E
FILE: 02 - Bone Narrow.flac
Size: 18643251 Hash: 8ED4BCCC07F1860BC3DB5D7348E04705 Accuracy: -m0
Conclusion: CDDA 100%
Signature: 888CC1B76022A7B10F353B6C1590335E8E8682F0
FILE: 01 - 1000 Words.flac
Size: 22512541 Hash: F231B8FCDF21F843D6B3F60D23F1E436 Accuracy: -m0
Conclusion: CDDA 100%
Signature: 89540DBE4598C33BA3B7937F1A7B0DE38DCFC853
... релизы с участием JEB BISHOP на трекере ...
По всем вопросам пишите личное сообщение пользователю M0p94ok.
07:06
161
Нет комментариев. Ваш будет первым!