Вы используете незарегистрированную версию компонента "Вкладки"!

Поиск

(Free Improvisation) [CD] Free Tallinn Trio (Jaak Sooaar, Anto Pett, Anne-Liis Poll) - A Tale - 2010, FLAC (tracks+.cue), lossless

(Free Improvisation) [CD] Free Tallinn Trio (Jaak Sooaar, Anto Pett, Anne-Liis Poll) - A Tale - 2010, FLAC (tracks+.cue), lossless
Треклист:
Free Tallinn Trio / A Tale
Жанр: Free Improvisation
Носитель: CD
Страна-производитель диска (релиза): UK
Год издания: 2010
Издатель (лейбл): Leo Records
Номер по каталогу: CD LR 557
Аудиокодек: FLAC (*.flac)
Тип рипа: tracks+.cue
Битрейт аудио: lossless
Продолжительность: 47:39
Источник (релизер): cd
Наличие сканов в содержимом раздачи: нет
Треклист:
1 Contact 9:21
2 Fast Flowing 8:44
3 Fluss 21:39
4 Nostalgia 4:45
 
Лог создания рипа
Exact Audio Copy V1.0 beta 3 from 29. August 2011
EAC extraction logfile from 11. December 2014, 15:53
Free Tallinn Trio / A Tale
Used drive : ASUS DRW-24F1ST a Adapter: 0 ID: 0
Read mode : Secure
Utilize accurate stream : Yes
Defeat audio cache : Yes
Make use of C2 pointers : No
Read offset correction : 6
Overread into Lead-In and Lead-Out : No
Fill up missing offset samples with silence : Yes
Delete leading and trailing silent blocks : No
Null samples used in CRC calculations : Yes
Used interface : Native Win32 interface for Win NT & 2000
Gap handling : Appended to previous track
Used output format : User Defined Encoder
Selected bitrate : 320 kBit/s
Quality : High
Add ID3 tag : No
Command line compressor : D:\Programs\Exact Audio Copy\Flac\flac.exe
Additional command line options : -V -8 -T "Genre=%genre%" -T "Artist=%artist%" -T "Title=%title%" -T "Album=%albumtitle%" -T "Date=%year%" -T "Tracknumber=%tracknr%" -T "Comment=%comment%" %source%
TOC of the extracted CD
Track | Start | Length | Start sector | End sector
---------------------------------------------------------
1 | 0:00.00 | 9:45.09 | 0 | 43883
2 | 9:45.09 | 9:09.59 | 43884 | 85117
3 | 18:54.68 | 22:37.25 | 85118 | 186917
4 | 41:32.18 | 6:07.46 | 186918 | 214488
Track 1
Filename D:\EAC\01 Contact.wav
Pre-gap length 0:00:02.00
Peak level 97.6 %
Extraction speed 5.0 X
Track quality 100.0 %
Test CRC FC4E9BB1
Copy CRC FC4E9BB1
Copy OK
Track 2
Filename D:\EAC\02 Fast Flowing.wav
Peak level 97.4 %
Extraction speed 5.8 X
Track quality 99.9 %
Test CRC 8AE269C7
Copy CRC 8AE269C7
Copy OK
Track 3
Filename D:\EAC\03 Fluss.wav
Peak level 97.5 %
Extraction speed 7.8 X
Track quality 100.0 %
Test CRC 42B59CBE
Copy CRC 42B59CBE
Copy OK
Track 4
Filename D:\EAC\04 Nostalgia.wav
Peak level 97.8 %
Extraction speed 8.2 X
Track quality 100.0 %
Test CRC 9797A60F
Copy CRC 9797A60F
Copy OK
No errors occurred
End of status report
==== Log checksum 234880DEA658282727EBE9AACDCEDFE4AA561D6D49F51F32534C8353346EB17F ====
 
Содержание индексной карты (.CUE)
REM GENRE Avantgarde
REM DATE 2010
REM DISCID 340B2B04
REM COMMENT "ExactAudioCopy v1.0b3"
PERFORMER "Free Tallinn Trio"
TITLE "A Tale"
FILE "01 Contact.wav" WAVE
TRACK 01 AUDIO
TITLE "Contact"
PERFORMER "Free Tallinn Trio"
ISRC GBJZD1000001
INDEX 01 00:00:00
FILE "02 Fast Flowing.wav" WAVE
TRACK 02 AUDIO
TITLE "Fast Flowing"
PERFORMER "Free Tallinn Trio"
ISRC GBJZD1000002
INDEX 01 00:00:00
FILE "03 Fluss.wav" WAVE
TRACK 03 AUDIO
TITLE "Fluss"
PERFORMER "Free Tallinn Trio"
ISRC GBJZD1000003
INDEX 01 00:00:00
FILE "04 Nostalgia.wav" WAVE
TRACK 04 AUDIO
TITLE "Nostalgia"
PERFORMER "Free Tallinn Trio"
ISRC GBJZD1000000
INDEX 01 00:00:00
Доп. информация: Recorded live at the Moers Festival by WDR on May 10, 2008
 
Состав
Electric Guitar – Jaak Sooäär
Piano – Anto Pett
Voice – Anne-Liis Poll
По всем вопросам пишите личное сообщение пользователю M0p94ok.
07:07
150
Нет комментариев. Ваш будет первым!