Вы используете незарегистрированную версию компонента "Вкладки"!

Поиск

(Avant-Garde Jazz, Free Jazz) [CD] BassDrumBone (Mark Helias, Ray Anderson, Gerry Hemingway) - March Of Dimes - 1997, FLAC (tracks+.cue), lossless

Треклист:
BassDrumBone / March Of Dimes
Жанр: Avant-Garde Jazz, Free Jazz
Носитель: CD
Страна-производитель диска: Netherlands
Год издания: 1997
Издатель (лейбл): Data Records
Номер по каталогу: DATA 021
Страна: US
Аудиокодек: FLAC (*.flac)
Тип рипа: tracks+.cue
Битрейт аудио: lossless
Продолжительность: 69:40
Источник (релизер): свой фирменный диск
Наличие сканов в содержимом раздачи:
Треклист:
1. Johnny Jones 10:28
2. Garnerish 13:45
3. Gentle Ben 8:38
4. Mumblypeg 11:48
5. March Of Dimes 6:53
6. Handycam 11:07
7. FlipFlop 6:29
 
Лог создания рипа
Exact Audio Copy V1.0 beta 3 from 29. August 2011
EAC extraction logfile from 27. June 2014, 21:44
BassDrumBone / March Of Dimes
Used drive : PIONEER DVD-RW DVR-115D Adapter: 0 ID: 0
Read mode : Secure
Utilize accurate stream : Yes
Defeat audio cache : Yes
Make use of C2 pointers : No
Read offset correction : 48
Overread into Lead-In and Lead-Out : No
Fill up missing offset samples with silence : Yes
Delete leading and trailing silent blocks : No
Null samples used in CRC calculations : Yes
Used interface : Installed external ASPI interface
Gap handling : Appended to previous track
Used output format : User Defined Encoder
Selected bitrate : 896 kBit/s
Quality : High
Add ID3 tag : No
Command line compressor : C:\Program Files\Exact Audio Copy\FLAC\FLAC.EXE
Additional command line options : -6 -V -T "ARTIST=%artist%" -T "TITLE=%title%" -T "ALBUM=%albumtitle%" -T "DATE=%year%" -T "TRACKNUMBER=%tracknr%" -T "GENRE=%genre%" -T "COMMENT=%comment%" -T "BAND=%albuminterpret%" -T "COMPOSER=%composer%" %haslyrics%--tag-from-file=LYRICS="%lyricsfile%"%haslyrics% -T "DISCNUMBER=%cdnumber%" -T "TOTALDISCS=%totalcds%" -T "TOTALTRACKS=%numtracks%" %hascover%--picture="%coverfile%"%hascover% %source% -o %dest%
TOC of the extracted CD
Track | Start | Length | Start sector | End sector
---------------------------------------------------------
1 | 0:00.00 | 10:28.40 | 0 | 47139
2 | 10:28.40 | 13:51.24 | 47140 | 109488
3 | 24:19.64 | 8:44.12 | 109489 | 148800
4 | 33:04.01 | 11:54.03 | 148801 | 202353
5 | 44:58.04 | 6:59.25 | 202354 | 233803
6 | 51:57.29 | 11:13.27 | 233804 | 284305
7 | 63:10.56 | 6:29.46 | 284306 | 313526
Track 1
Filename D:\zzz\01 - Johnny Jones.wav
Pre-gap length 0:00:02.00
Peak level 98.0 %
Extraction speed 5.1 X
Track quality 100.0 %
Test CRC C23E8DE7
Copy CRC C23E8DE7
Accurately ripped (confidence 2) [7513A06C] (AR v2)
Copy OK
Track 2
Filename D:\zzz\02 - Garnerish.wav
Peak level 98.0 %
Extraction speed 6.1 X
Track quality 99.9 %
Test CRC 14BDE57C
Copy CRC 14BDE57C
Accurately ripped (confidence 2) [3A66D6DE] (AR v2)
Copy OK
Track 3
Filename D:\zzz\03 - Gentle Ben.wav
Pre-gap length 0:00:06.00
Peak level 98.0 %
Extraction speed 7.1 X
Track quality 100.0 %
Test CRC A219D59B
Copy CRC A219D59B
Accurately ripped (confidence 2) [752AAA35] (AR v2)
Copy OK
Track 4
Filename D:\zzz\04 - Mumblypeg.wav
Pre-gap length 0:00:06.00
Peak level 98.0 %
Extraction speed 7.9 X
Track quality 100.0 %
Test CRC EB06D3D5
Copy CRC EB06D3D5
Accurately ripped (confidence 2) [2E492647] (AR v2)
Copy OK
Track 5
Filename D:\zzz\05 - March Of Dimes.wav
Pre-gap length 0:00:06.00
Peak level 98.0 %
Extraction speed 8.1 X
Track quality 100.0 %
Test CRC 77EE3DB7
Copy CRC 77EE3DB7
Accurately ripped (confidence 2) [E9B9ECF8] (AR v2)
Copy OK
Track 6
Filename D:\zzz\06 - Handycam.wav
Pre-gap length 0:00:06.00
Peak level 98.8 %
Extraction speed 8.9 X
Track quality 100.0 %
Test CRC 0BC3B84B
Copy CRC 0BC3B84B
Accurately ripped (confidence 2) [6388EA49] (AR v2)
Copy OK
Track 7
Filename D:\zzz\07 - FlipFlop.wav
Pre-gap length 0:00:06.00
Peak level 98.0 %
Extraction speed 9.0 X
Track quality 100.0 %
Test CRC B9137C53
Copy CRC B9137C53
Accurately ripped (confidence 2) [5EECB4E2] (AR v2)
Copy OK
All tracks accurately ripped
No errors occurred
End of status report
==== Log checksum D3D3E058A0D88751E4953BE54794CF2F7E9C42082F0F0C2FB4F9F7216D8C1761 ====
 
Содержание индексной карты (.CUE)
REM GENRE "Free Jazz"
REM DATE 1997
REM DISCID 5B105407
REM COMMENT "ExactAudioCopy v1.0b3"
PERFORMER "BassDrumBone"
TITLE "March Of Dimes"
FILE "01 - Johnny Jones.wav" WAVE
TRACK 01 AUDIO
TITLE "Johnny Jones"
PERFORMER "BassDrumBone"
INDEX 01 00:00:00
FILE "02 - Garnerish.wav" WAVE
TRACK 02 AUDIO
TITLE "Garnerish"
PERFORMER "BassDrumBone"
INDEX 01 00:00:00
TRACK 03 AUDIO
TITLE "Gentle Ben"
PERFORMER "BassDrumBone"
INDEX 00 13:45:24
FILE "03 - Gentle Ben.wav" WAVE
INDEX 01 00:00:00
TRACK 04 AUDIO
TITLE "Mumblypeg"
PERFORMER "BassDrumBone"
INDEX 00 08:38:12
FILE "04 - Mumblypeg.wav" WAVE
INDEX 01 00:00:00
TRACK 05 AUDIO
TITLE "March Of Dimes"
PERFORMER "BassDrumBone"
INDEX 00 11:48:03
FILE "05 - March Of Dimes.wav" WAVE
INDEX 01 00:00:00
TRACK 06 AUDIO
TITLE "Handycam"
PERFORMER "BassDrumBone"
INDEX 00 06:53:25
FILE "06 - Handycam.wav" WAVE
INDEX 01 00:00:00
TRACK 07 AUDIO
TITLE "FlipFlop"
PERFORMER "BassDrumBone"
INDEX 00 11:07:27
FILE "07 - FlipFlop.wav" WAVE
INDEX 01 00:00:00
 
Лог проверки качества
d:\>d:\aucdtect -d/-m0 d:\zzz\*.wav
auCDtect: CD records authenticity detector, version 0.8.2
Copyright (c) 2004 Oleg Berngardt. All rights reserved.
Copyright (c) 2004 Alexander Djourik. All rights reserved.
------------------------------------------------------------
Processing file: [01. Johnny Jones.wav]
------------------------------------------------------------
This track looks like CDDA with probability 100%
------------------------------------------------------------
Processing file: [02. Garnerish.wav]
------------------------------------------------------------
This track looks like CDDA with probability 100%
------------------------------------------------------------
Processing file: [03. Gentle Ben.wav]
------------------------------------------------------------
This track looks like CDDA with probability 100%
------------------------------------------------------------
Processing file: [04. Mumblypeg.wav]
------------------------------------------------------------
This track looks like CDDA with probability 100%
------------------------------------------------------------
Processing file: [05. March Of Dimes.wav]
------------------------------------------------------------
This track looks like CDDA with probability 99%
------------------------------------------------------------
Processing file: [06. Handycam.wav]
------------------------------------------------------------
This track looks like CDDA with probability 100%
------------------------------------------------------------
Processing file: [07. FlipFlop.wav]
------------------------------------------------------------
This track looks like CDDA with probability 100%
------------------------------------------------------------
Final Conclusion:
------------------------------------------------------------
These tracks looks like CDDA with probability 100%
Доп. информация:
 
Album Info
(Hemingway) - 1,7
(Anderson) - 2,4
(Helias) - 3,5,6
Live recorded at the BIMhuis, Amsterdam, September 26, 1997, direct to 2-track for VPRO radio
Recorded and produced by Dick Lucas
Coverdesign: Han Bennink
Design: Leugenachtig Lekker
Thanks to Jim Hemingway, Vera Vingerhoeds and Rene de Rooij
 
Состав
Ray Anderson: trombone
Mark Helias: bass
Gerry Hemingway: drums
По всем вопросам пишите личное сообщение пользователю M0p94ok.
04:06
300
Нет комментариев. Ваш будет первым!