Вы используете незарегистрированную версию компонента "Вкладки"!

Поиск

(Avant-Garde Jazz, Modern Composition) [CD] Phillip Johnston (w/ Joe Ruddick, Mark Josefsberg, David Hofstra) - Page Of Madness - 1998, FLAC (tracks+.cue), lossless

(Avant-Garde Jazz, Modern Composition) [CD] Phillip Johnston (w/ Joe Ruddick, Mark Josefsberg, David Hofstra) - Page Of Madness - 1998, FLAC (tracks+.cue), lossless
Треклист:
Phillip Johnston / Page Of Madness
Жанр: Avant-Garde Jazz, Modern Composition
Носитель: CD
Страна-производитель диска: US
Год издания: 1998
Издатель (лейбл): Asynchronous Records
Номер по каталогу: Asynchronous 001
Страна: US
Аудиокодек: FLAC (*.flac)
Тип рипа: tracks+.cue
Битрейт аудио: lossless
Продолжительность: 77:31
Источник (релизер): свой фирменный диск
Наличие сканов в содержимом раздачи:
Треклист:
1. Prelude 4:38
2. The Dancer 4:00
3. The Mad Wife 6:20
4. The Visit 6:24
5. The Asylum 4:38
6. Parting The Waters 4:03
7. There's A Riot Goin' On 6:33
8. Home Life 8:01
9. Home Life Ruined 6:43
10. Escape Attempt 9:03
11. The Dream 10:13
12. The Masks 3:43
13. At Peace With A Mop 3:08
 
Лог создания рипа
Exact Audio Copy V1.0 beta 3 from 29. August 2011
EAC extraction logfile from 28. June 2014, 14:54
Phillip Johnston / Page Of Madness
Used drive : PIONEER DVD-RW DVR-115D Adapter: 0 ID: 0
Read mode : Secure
Utilize accurate stream : Yes
Defeat audio cache : Yes
Make use of C2 pointers : No
Read offset correction : 48
Overread into Lead-In and Lead-Out : No
Fill up missing offset samples with silence : Yes
Delete leading and trailing silent blocks : No
Null samples used in CRC calculations : Yes
Used interface : Installed external ASPI interface
Gap handling : Appended to previous track
Used output format : User Defined Encoder
Selected bitrate : 896 kBit/s
Quality : High
Add ID3 tag : No
Command line compressor : C:\Program Files\Exact Audio Copy\FLAC\FLAC.EXE
Additional command line options : -6 -V -T "ARTIST=%artist%" -T "TITLE=%title%" -T "ALBUM=%albumtitle%" -T "DATE=%year%" -T "TRACKNUMBER=%tracknr%" -T "GENRE=%genre%" -T "COMMENT=%comment%" -T "BAND=%albuminterpret%" -T "COMPOSER=%composer%" %haslyrics%--tag-from-file=LYRICS="%lyricsfile%"%haslyrics% -T "DISCNUMBER=%cdnumber%" -T "TOTALDISCS=%totalcds%" -T "TOTALTRACKS=%numtracks%" %hascover%--picture="%coverfile%"%hascover% %source% -o %dest%
TOC of the extracted CD
Track | Start | Length | Start sector | End sector
---------------------------------------------------------
1 | 0:00.00 | 4:38.54 | 0 | 20903
2 | 4:38.54 | 3:59.70 | 20904 | 38898
3 | 8:38.49 | 6:20.15 | 38899 | 67413
4 | 14:58.64 | 6:24.28 | 67414 | 96241
5 | 21:23.17 | 4:37.73 | 96242 | 117089
6 | 26:01.15 | 4:03.55 | 117090 | 135369
7 | 30:04.70 | 6:33.56 | 135370 | 164900
8 | 36:38.51 | 8:01.63 | 164901 | 201038
9 | 44:40.39 | 6:43.07 | 201039 | 231270
10 | 51:23.46 | 9:03.10 | 231271 | 272005
11 | 60:26.56 | 10:13.49 | 272006 | 318029
12 | 70:40.30 | 3:43.11 | 318030 | 334765
13 | 74:23.41 | 3:08.22 | 334766 | 348887
Track 1
Filename D:\zzz\01 - Prelude.wav
Pre-gap length 0:00:02.00
Peak level 62.6 %
Extraction speed 4.9 X
Track quality 100.0 %
Test CRC 2FB5C71E
Copy CRC 2FB5C71E
Accurately ripped (confidence 1) [6026A772] (AR v1)
Copy OK
Track 2
Filename D:\zzz\02 - The Dancer.wav
Peak level 63.4 %
Extraction speed 5.2 X
Track quality 100.0 %
Test CRC EAD9BAB9
Copy CRC EAD9BAB9
Accurately ripped (confidence 1) [0946C58A] (AR v1)
Copy OK
Track 3
Filename D:\zzz\03 - The Mad Wife.wav
Peak level 67.9 %
Extraction speed 6.0 X
Track quality 100.0 %
Test CRC BB33B35D
Copy CRC BB33B35D
Accurately ripped (confidence 1) [B1C4ADF9] (AR v1)
Copy OK
Track 4
Filename D:\zzz\04 - The Visit.wav
Peak level 72.9 %
Extraction speed 6.5 X
Track quality 100.0 %
Test CRC 90FD0250
Copy CRC 90FD0250
Accurately ripped (confidence 1) [94E58663] (AR v1)
Copy OK
Track 5
Filename D:\zzz\05 - The Asylum.wav
Peak level 70.5 %
Extraction speed 6.7 X
Track quality 100.0 %
Test CRC 27963FD4
Copy CRC 27963FD4
Accurately ripped (confidence 1) [B372CE0C] (AR v1)
Copy OK
Track 6
Filename D:\zzz\06 - Parting The Waters.wav
Peak level 64.9 %
Extraction speed 6.9 X
Track quality 100.0 %
Test CRC FF7E90D3
Copy CRC FF7E90D3
Accurately ripped (confidence 1) [35B67589] (AR v1)
Copy OK
Track 7
Filename D:\zzz\07 - There's A Riot Goin' On.wav
Peak level 98.9 %
Extraction speed 7.0 X
Track quality 99.9 %
Test CRC A470C944
Copy CRC A470C944
Accurately ripped (confidence 1) [E972E141] (AR v1)
Copy OK
Track 8
Filename D:\zzz\08 - Home Life.wav
Peak level 72.9 %
Extraction speed 8.1 X
Track quality 100.0 %
Test CRC CFAD7C91
Copy CRC CFAD7C91
Accurately ripped (confidence 1) [9F87E767] (AR v1)
Copy OK
Track 9
Filename D:\zzz\09 - Home Life Ruined.wav
Peak level 98.9 %
Extraction speed 8.5 X
Track quality 100.0 %
Test CRC 8EAF838F
Copy CRC 8EAF838F
Accurately ripped (confidence 1) [648D5483] (AR v1)
Copy OK
Track 10
Filename D:\zzz\10 - Escape Attempt.wav
Peak level 80.5 %
Extraction speed 8.6 X
Track quality 99.9 %
Test CRC 0AB46977
Copy CRC 0AB46977
Accurately ripped (confidence 1) [D5149E62] (AR v1)
Copy OK
Track 11
Filename D:\zzz\11 - The Dream.wav
Peak level 70.8 %
Extraction speed 9.7 X
Track quality 100.0 %
Test CRC A1A42810
Copy CRC A1A42810
Accurately ripped (confidence 1) [346A116A] (AR v1)
Copy OK
Track 12
Filename D:\zzz\12 - The Masks.wav
Peak level 46.6 %
Extraction speed 9.0 X
Track quality 100.0 %
Test CRC 6229CBED
Copy CRC 6229CBED
Accurately ripped (confidence 1) [7DDEBAFF] (AR v1)
Copy OK
Track 13
Filename D:\zzz\13 - At Peace With A Mop.wav
Peak level 68.3 %
Extraction speed 8.9 X
Track quality 100.0 %
Test CRC 9B1EAB13
Copy CRC 9B1EAB13
Accurately ripped (confidence 1) [21CF8974] (AR v1)
Copy OK
All tracks accurately ripped
No errors occurred
End of status report
==== Log checksum F9C90F45CD63020BA531B5F4D0CB46268F7B3526A2CD63BBC3CF30A61DDCCDE8 ====
 
Содержание индексной карты (.CUE)
REM GENRE "Avant-Garde Jazz"
REM DATE 1998
REM DISCID A2122B0D
REM COMMENT "ExactAudioCopy v1.0b3"
PERFORMER "Phillip Johnston"
TITLE "Page Of Madness"
FILE "01 - Prelude.wav" WAVE
TRACK 01 AUDIO
TITLE "Prelude"
PERFORMER "Phillip Johnston"
INDEX 01 00:00:00
FILE "02 - The Dancer.wav" WAVE
TRACK 02 AUDIO
TITLE "The Dancer"
PERFORMER "Phillip Johnston"
INDEX 01 00:00:00
FILE "03 - The Mad Wife.wav" WAVE
TRACK 03 AUDIO
TITLE "The Mad Wife"
PERFORMER "Phillip Johnston"
INDEX 01 00:00:00
FILE "04 - The Visit.wav" WAVE
TRACK 04 AUDIO
TITLE "The Visit"
PERFORMER "Phillip Johnston"
INDEX 01 00:00:00
FILE "05 - The Asylum.wav" WAVE
TRACK 05 AUDIO
TITLE "The Asylum"
PERFORMER "Phillip Johnston"
INDEX 01 00:00:00
FILE "06 - Parting The Waters.wav" WAVE
TRACK 06 AUDIO
TITLE "Parting The Waters"
PERFORMER "Phillip Johnston"
INDEX 01 00:00:00
FILE "07 - There's A Riot Goin' On.wav" WAVE
TRACK 07 AUDIO
TITLE "There's A Riot Goin' On"
PERFORMER "Phillip Johnston"
INDEX 01 00:00:00
FILE "08 - Home Life.wav" WAVE
TRACK 08 AUDIO
TITLE "Home Life"
PERFORMER "Phillip Johnston"
INDEX 01 00:00:00
FILE "09 - Home Life Ruined.wav" WAVE
TRACK 09 AUDIO
TITLE "Home Life Ruined"
PERFORMER "Phillip Johnston"
INDEX 01 00:00:00
FILE "10 - Escape Attempt.wav" WAVE
TRACK 10 AUDIO
TITLE "Escape Attempt"
PERFORMER "Phillip Johnston"
INDEX 01 00:00:00
FILE "11 - The Dream.wav" WAVE
TRACK 11 AUDIO
TITLE "The Dream"
PERFORMER "Phillip Johnston"
INDEX 01 00:00:00
FILE "12 - The Masks.wav" WAVE
TRACK 12 AUDIO
TITLE "The Masks"
PERFORMER "Phillip Johnston"
INDEX 01 00:00:00
FILE "13 - At Peace With A Mop.wav" WAVE
TRACK 13 AUDIO
TITLE "At Peace With A Mop"
PERFORMER "Phillip Johnston"
INDEX 01 00:00:00
 
Лог проверки качества
d:\>d:\aucdtect -d/-m0 d:\zzz\*.wav
auCDtect: CD records authenticity detector, version 0.8.2
Copyright (c) 2004 Oleg Berngardt. All rights reserved.
Copyright (c) 2004 Alexander Djourik. All rights reserved.
------------------------------------------------------------
Processing file: [01. Prelude.wav]
------------------------------------------------------------
This track looks like MPEG with probability 100%
------------------------------------------------------------
Processing file: [02. The Dancer.wav]
------------------------------------------------------------
This track looks like MPEG with probability 100%
------------------------------------------------------------
Processing file: [03. The Mad Wife.wav]
------------------------------------------------------------
This track looks like MPEG with probability 100%
------------------------------------------------------------
Processing file: [04. The Visit.wav]
------------------------------------------------------------
This track looks like MPEG with probability 99%
------------------------------------------------------------
Processing file: [05. The Asylum.wav]
------------------------------------------------------------
This track looks like MPEG with probability 100%
------------------------------------------------------------
Processing file: [06. Parting The Waters.wav]
------------------------------------------------------------
This track looks like MPEG with probability 100%
------------------------------------------------------------
Processing file: [07. There's A Riot Goin' On.wav]
------------------------------------------------------------
This track looks like MPEG with probability 93%
------------------------------------------------------------
Processing file: [08. Home Life.wav]
------------------------------------------------------------
This track looks like MPEG with probability 100%
------------------------------------------------------------
Processing file: [09. Home Life Ruined.wav]
------------------------------------------------------------
This track looks like MPEG with probability 100%
------------------------------------------------------------
Processing file: [10. Escape Attempt.wav]
------------------------------------------------------------
This track looks like CDDA with probability 49%
------------------------------------------------------------
Processing file: [11. The Dream.wav]
------------------------------------------------------------
This track looks like MPEG with probability 99%
------------------------------------------------------------
Processing file: [12. The Masks.wav]
------------------------------------------------------------
This track looks like MPEG with probability 99%
------------------------------------------------------------
Processing file: [13. At Peace With A Mop.wav]
------------------------------------------------------------
This track looks like MPEG with probability 100%
------------------------------------------------------------
Final Conclusion:
------------------------------------------------------------
These tracks looks like MPEGs with probability 100%
Доп. информация:
 
Album Info & AAJ Review
All music (C) Phillip Johnston
The enclosed is a recording of an original score by Phillip Johnston for the 1926 Japanese silent film Kurutta Ippeji (A Page Of Madness) by Teinosuke Kinugasa, performed in sync with the film, projected at 18fps. The score was commissioned by the Film Society of Lincoln Center, and premiered in New York at the Walter Reade Theatre on July 10, 1998.
Recording by Jon Rosenberg (1998)
Mastered by Jason Candler (2008)
Cover art/design by Keith Lo Bue
Produced by Phillip Johnston
Special thanks to Sayre Maxfield and the Film Society of Lincoln Center for their support of my work over the years.
Saxophonist and composer Phillip Johnston has always been a step (or two) out of synch with trends in modern music. And that is a good thing. His eclectic '80s band Microscopic Septet was never given its due. Now, twenty years later, with the reissue of its Seven Men in Neckties: History of the Micros, Vol. 1 (Cuneiform, 2006) and Surrealistic Swing: History of the Micros, Vol. 2 (Cuneiform, 2006), and its new recording Lobster Leaps In (Cuneiform, 2008) the group is garnering much deserved praise. Likewise, this score for a silent film made in 1998 is finally seeing the light of day. And that too is a good thing.
Johnston has a knack for film scores, having released the now out of print discs The Merry Frolics of Satan: The Georges Melies Project (Koch 1999) with The Transparent Quartet, and The Unknown (Avant, 1994) with the band Big Trouble, plus a collection of scores with Music for Films (Tzadik, 1998). He can also be heard on Needless Kiss (Koch 1998) and more recently in Fast 'N' Bulbous, a Captain Beefheart tribute band.
Like his prior film work, he chose The Transparent Quartet for this commissioned project. The film is a Japanese silent film from 1926 entitled Kurutta Ippeiji (A Page of Madness) by director Teinosuke Kinugasa. And while there are no DVD prints available, like many of these soundtrack projects, the music tells its own story.
Clocking in at nearly 80 minutes, the score bears little swing or jazz feel except for the instrumentation and written improvisational passages. Johnston and bassist Dave Hofstra anchor this session with pianist/saxophonist Joe Ruddick and vibraphonist Mark Josefsberg often soloing. Each player is also given room to improvise, but limitations of the film are maintained, meaning they are on the clock—required to fit their improvised parts within the story and also within the composed parts.
Of course all of this is of no particular importance without the film. The music stands alone as an engaging and absorbing piece of chamber jazz composition/improvisation by a highly skilled band.
 
Состав
The Transparent Quartet:
Phillip Johnston: soprano, alto saxophone
Joe Ruddick: piano, baritone saxophone
Mark Josefsberg: vibraphone
David Hofstra: bass
По всем вопросам пишите личное сообщение пользователю M0p94ok.
04:06
206
Нет комментариев. Ваш будет первым!