Вы используете незарегистрированную версию компонента "Вкладки"!

Поиск

(Avant-Garde, Free Improvisation, NotTwo Records) [CD] Max Johnson (w/ Steve Swell, Mark Whitecage, Tyshawn Sorey) - Quartet - 2012, FLAC (tracks+.cue), lossless

Треклист:
Max Johnson / Quartet
Жанр: Avant-Garde, Free Improvisation, NotTwo Records
Носитель: CD
Страна-производитель диска: Poland
Год издания: 2012
Издатель (лейбл): NotTwo Records
Номер по каталогу: MW 889-2
Аудиокодек: FLAC (*.flac)
Тип рипа: tracks+.cue
Битрейт аудио: lossless
Продолжительность: 48:46
Источник (релизер): я
Наличие сканов в содержимом раздачи: да
Треклист:
1. Elephant March (8:47)
2. Lost & Found (for Henry Grimes) (10:56)
3. Disharmony in 5 Notes or Less (1:00)
4. 60-66 (11:09)
5. Atonement (8:02)
6. Iset-Ra (8:52)
All songs composed by Max Johnson.
Recorded at Tedesco Studios.
Mark Whitecage – Alto Saxophone, Clarinet
Steve Swell – Trombone
Max Johnson – Bass
Tyshawn Sorey – Drums
 
Лог создания рипа
Exact Audio Copy V1.0 beta 3 from 29. August 2011
EAC extraction logfile from 17. July 2014, 18:22
Max Johnson / Quartet
Used drive : SlimtypeeNAU508 5 Adapter: 1 ID: 0
Read mode : Secure
Utilize accurate stream : Yes
Defeat audio cache : Yes
Make use of C2 pointers : No
Read offset correction : 6
Overread into Lead-In and Lead-Out : No
Fill up missing offset samples with silence : Yes
Delete leading and trailing silent blocks : No
Null samples used in CRC calculations : Yes
Used interface : Native Win32 interface for Win NT & 2000
Gap handling : Appended to previous track
Used output format : User Defined Encoder
Selected bitrate : 768 kBit/s
Quality : High
Add ID3 tag : No
Command line compressor : C:\Program Files (x86)\Exact Audio Copy\Flac\flac.exe
Additional command line options : -8 -V -T "ARTIST=%artist%" -T "TITLE=%title%" -T "ALBUM=%albumtitle%" -T "DATE=%year%" -T "TRACKNUMBER=%tracknr%" -T "TOTALTRACKS=%numtracks%" -T "GENRE=%genre%" -T "ALBUMARTIST=%albumartist%" -T "ALBUM ARTIST=%albumartist%" -T "COMMENT=EAC Secure Mode, Test & Copy, AccurateRip, FLAC -8" %source%
TOC of the extracted CD
Track | Start | Length | Start sector | End sector
---------------------------------------------------------
1 | 0:00.00 | 8:47.36 | 0 | 39560
2 | 8:47.36 | 10:55.52 | 39561 | 88737
3 | 19:43.13 | 0:59.62 | 88738 | 93224
4 | 20:43.00 | 11:08.58 | 93225 | 143382
5 | 31:51.58 | 8:01.64 | 143383 | 179521
6 | 39:53.47 | 8:52.23 | 179522 | 219444
Track 1
Filename C:\EAC rips\01 - Elephant March.wav
Pre-gap length 0:00:02.00
Peak level 86.0 %
Extraction speed 2.6 X
Track quality 100.0 %
Test CRC DCDFC667
Copy CRC DCDFC667
Accurately ripped (confidence 1) [2ACCA711] (AR v2)
Copy OK
Track 2
Filename C:\EAC rips\02 - Lost & Found (for Henry Grimes).wav
Pre-gap length 0:00:02.00
Peak level 86.0 %
Extraction speed 3.0 X
Track quality 99.9 %
Test CRC 859C156A
Copy CRC 859C156A
Accurately ripped (confidence 1) [DD093939] (AR v2)
Copy OK
Track 3
Filename C:\EAC rips\03 - Disharmony in 5 Notes or Less.wav
Pre-gap length 0:00:04.37
Peak level 57.4 %
Extraction speed 2.3 X
Track quality 100.0 %
Test CRC 913C65A5
Copy CRC 913C65A5
Accurately ripped (confidence 1) [A525C91A] (AR v2)
Copy OK
Track 4
Filename C:\EAC rips\04 - 60-66.wav
Pre-gap length 0:00:04.00
Peak level 86.0 %
Extraction speed 3.8 X
Track quality 100.0 %
Test CRC D412672C
Copy CRC D412672C
Accurately ripped (confidence 1) [9DCD1119] (AR v2)
Copy OK
Track 5
Filename C:\EAC rips\05 - Atonement.wav
Pre-gap length 0:00:01.00
Peak level 86.0 %
Extraction speed 4.0 X
Track quality 100.0 %
Test CRC B134A17C
Copy CRC B134A17C
Accurately ripped (confidence 1) [8BC2EA9A] (AR v2)
Copy OK
Track 6
Filename C:\EAC rips\06 - Iset-Ra.wav
Pre-gap length 0:00:04.00
Peak level 86.0 %
Extraction speed 4.3 X
Track quality 100.0 %
Test CRC F397EA77
Copy CRC F397EA77
Accurately ripped (confidence 1) [7F6AC2E9] (AR v2)
Copy OK
All tracks accurately ripped
No errors occurred
End of status report
---- CUETools DB Plugin V2.1.4
[CTDB TOCID: bCYderMLXcfgPN1RwmlBrcYZHxQ-] found
Submit result: already submitted
Track | CTDB Status
1 | (1/1) Accurately ripped
2 | (1/1) Accurately ripped
3 | (1/1) Accurately ripped
4 | (1/1) Accurately ripped
5 | (1/1) Accurately ripped
6 | (1/1) Accurately ripped
==== Log checksum 2C68C198D20AD1C8CAFB33811C44DB80AF26E0E1EA41CFD137942E6D64873C8C ====
 
Содержание индексной карты (.CUE)
REM GENRE Jazz
REM DATE 2012
REM DISCID 4E0B6D06
REM COMMENT "ExactAudioCopy v1.0b3"
PERFORMER "Max Johnson"
TITLE "Quartet"
FILE "01 - Elephant March.wav" WAVE
TRACK 01 AUDIO
TITLE "Elephant March"
PERFORMER "Max Johnson"
FLAGS DCP
INDEX 01 00:00:00
TRACK 02 AUDIO
TITLE "Lost & Found (for Henry Grimes)"
PERFORMER "Max Johnson"
FLAGS DCP
INDEX 00 08:45:36
FILE "02 - Lost & Found (for Henry Grimes).wav" WAVE
INDEX 01 00:00:00
TRACK 03 AUDIO
TITLE "Disharmony in 5 Notes or Less"
PERFORMER "Max Johnson"
FLAGS DCP
INDEX 00 10:51:15
FILE "03 - Disharmony in 5 Notes or Less.wav" WAVE
INDEX 01 00:00:00
TRACK 04 AUDIO
TITLE "60-66"
PERFORMER "Max Johnson"
FLAGS DCP
INDEX 00 00:55:62
FILE "04 - 60-66.wav" WAVE
INDEX 01 00:00:00
TRACK 05 AUDIO
TITLE "Atonement"
PERFORMER "Max Johnson"
FLAGS DCP
INDEX 00 11:07:58
FILE "05 - Atonement.wav" WAVE
INDEX 01 00:00:00
TRACK 06 AUDIO
TITLE "Iset-Ra"
PERFORMER "Max Johnson"
FLAGS DCP
INDEX 00 07:57:64
FILE "06 - Iset-Ra.wav" WAVE
INDEX 01 00:00:00
По всем вопросам пишите личное сообщение пользователю M0p94ok.
04:05
204
Нет комментариев. Ваш будет первым!