Поиск

(Avant-Garde Jazz, Free Jazz) Anthony Braxton - Town Hall 1972 - 2005 (Japan Edition), APE (image+.cue), lossless

(Avant-Garde Jazz, Free Jazz) Anthony Braxton - Town Hall 1972 - 2005 (Japan Edition), APE (image+.cue), lossless
Треклист:
Anthony Braxton - Town Hall 1972
Жанр: Avant-Garde Jazz, Free Jazz
Страна-производитель диска: Japan
Год издания диска: 2005
Издатель (лейбл): Absord
Номер по каталогу: ABCJ-351
Аудио кодек: APE (*.ape)
Тип рипа: image+.cue
Битрейт аудио: lossless
Продолжительность: 68:36
Наличие сканов в содержимом раздачи: да
Источник (релизер): nnm, thanks barin99
Треклист:
1. Composition I
2. Composition II
3. All the Things You Are
Исполнители:
Anthony Braxton - Clarinet, Flute, Sax (Alto), Sax (Soprano)
John Stubblefield - Clarinet (Bass), Flute
Jeanne Lee - Synthesizer
Dave Holland - Bass
Phillip Wilson - Marimba, Percussion
Barry Altschul - Percussion
Jerome Lee - Vocals
 
Лог EAC
Exact Audio Copy V1.0 beta 1 from 15. November 2010
EAC extraction logfile from 6. February 2011, 21:01
Anthony Braxton / Town Hall 1972
Used drive : TSSTcorpDVD+-RW TS-L532B Adapter: 1 ID: 0
Read mode : Secure
Utilize accurate stream : Yes
Defeat audio cache : Yes
Make use of C2 pointers : No
Read offset correction : 704
Overread into Lead-In and Lead-Out : No
Fill up missing offset samples with silence : Yes
Delete leading and trailing silent blocks : No
Null samples used in CRC calculations : Yes
Used interface : Native Win32 interface for Win NT & 2000
Used output format : Internal WAV Routines
Sample format : 44.100 Hz; 16 Bit; Stereo
TOC of the extracted CD
Track | Start | Length | Start sector | End sector
---------------------------------------------------------
1 | 0:00.00 | 18:21.30 | 0 | 82604
2 | 18:21.30 | 14:33.35 | 82605 | 148114
3 | 32:54.65 | 35:36.60 | 148115 | 308374
Range status and errors
Selected range
Filename C:\Documents and Settings\VB\My Documents\BARIN99\Anthony Braxton - Town Hall 1972\Anthony Braxton - Town Hall 1972.wav
Peak level 97.7 %
Extraction speed 2.4 X
Range quality 100.0 %
Copy CRC 1034BC70
Copy OK
No errors occurred
AccurateRip summary
Track 1 cannot be verified as accurate (confidence 1) [677B90D5], AccurateRip returned [FFC30FF2]
Track 2 cannot be verified as accurate (confidence 1) [43E885CC], AccurateRip returned [6071E1E3]
Track 3 cannot be verified as accurate (confidence 1) [C105F833], AccurateRip returned [CE9042C9]
No tracks could be verified as accurate
You may have a different pressing from the one(s) in the database
End of status report
 
Содержание индексной карты (.CUE)
REM GENRE Jazz
REM DATE 2005
REM DISCID 1E100F03
REM COMMENT "ExactAudioCopy v1.0b1"
PERFORMER "Anthony Braxton"
TITLE "Town Hall 1972"
FILE "Anthony Braxton - Town Hall 1972.wav" WAVE
TRACK 01 AUDIO
TITLE "Composition I"
PERFORMER "Anthony Braxton"
INDEX 01 00:00:00
TRACK 02 AUDIO
TITLE "Composition II"
PERFORMER "Anthony Braxton"
INDEX 01 18:21:30
TRACK 03 AUDIO
TITLE "All The Things You Are, Composition III"
PERFORMER "Anthony Braxton"
INDEX 01 32:54:65
 
Review
For those seeking the deep roots of Anthony Braxton's numbered series of compositions — numbering close to 200 — this 1972 concert is essential in that it features live recordings of 'Composition 1' (for percussionist Jerome Cooper), 'Composition 2' (for pianist Frederic Rzewski), and 'Composition 3.' This marks a return home, albeit a temporary one, for the composer and multi-instrumentalist — Braxton left the United States for France in 1968, where he made a few recordings for European labels. Braxton showcases his work in a number of settings here — in a pair of trios with bassist Dave Holland and drummers Phillip Wilson and Barry Altschul, and on 'Composition 3' (for vocalist Jeanne Lee) saxophonist John Stubblefield and Lee herself become a part of the band. Also in the mix is in a wildly abstract but street-tough read of 'All the Things You Are.' On 'Composition 1,' Braxton, Holland, and Wilson establish early on what would be a trait in the composer's improvisations, which is the notion of a theme thoroughly stated, abstracted, deconstructed, and reconstructed into something wholly other while remaining recognizable. Critics have argued this, but those who deny it just don't listen closely enough. Here Braxton's first quotations from Warne Marsh make their way onto tape, and his manner of shifting pitch against chromatic and even whole-tone harmonics to create the appearance of diatonic abstraction comes into play as the body of the work. Holland plays away from it, moving toward Braxton's outer reach while Wilson moves inside the thematic construct, opening it up enough to keep Holland within reach of the subtle shifts some of the improvisation requires for articulation. On 'Composition 2,' the center moves outward with Altschul and Holland playing on the perimeter; Braxton's complex but nonetheless readily apparent lyric fragments keep them rooted to a space just within his reach improvisationally, inverting the traditional operation of a trio. Finally, on 'Composition 3,' Lee adds a kind of (a)tonal center as Braxton tries out six different reeds. Stubblefield offers a muscular counterpart to Braxton's more speculative tone, and offers a spatial figure for all things to exist in equally. Silence is an integral part of the dynamic in this quintet, where no player oversteps her or his placement within the construct of the whole. And while it is true, other than the cover tune, none of this 'swings' per se; it doesn't reek of academia either. The playing here is soulful and engaging throughout it features some crack improvisation. This is a welcome reissue in Braxton's voluminous back catalog.
О Брэкстоне: здесь
По всем вопросам пишите личное сообщение пользователю M0p94ok.
09:18
217
Нет комментариев. Ваш будет первым!