Вы используете незарегистрированную версию компонента "Вкладки"!

Поиск

(avant-jazz/jazz-rock/psychedelic) Francesco Cusa "Skrunch" - Psicopatologia del serial killer - 2005, FLAC (tracks+.cue) lossless

(avant-jazz/jazz-rock/psychedelic) Francesco Cusa "Skrunch" - Psicopatologia del serial killer - 2005, FLAC (tracks+.cue) lossless
Треклист:
Francesco Cusa "Skrunch" / Psicopatologia del serial killer
Жанр: avant-jazz/jazz-rock/psychedelic
Страна-производитель диска: italy
Год издания диска: 2005
Издатель (лейбл): Improvvisatore Involontario
Номер по каталогу: ii0001
Страна: Italy
Аудио кодек: FLAC (*.flac)
Тип рипа: tracks+.cue
Битрейт аудио: lossless
Продолжительность: 74:33
Источник (релизер): Собственный рип
Наличие сканов в содержимом раздачи: да
Треклист:
1. j.d.h.
2. blatta
3. nonsense
4. dr. akadi
5. psyco jogging
6. where`s s. kubrick?
7. buzzati`s capture
8. beyond gods and devils
9. ...the day before...
 
Лог создания рипа
Exact Audio Copy V0.99 prebeta 5 from 4. May 2009
EAC extraction logfile from 1. March 2011, 19:01
Francrsco Cusa "Skrunch" / Psicopatologia Del Serial Killer
Used drive : Optiarc DVD RW AD-7243S Adapter: 0 ID: 1
Read mode : Secure
Utilize accurate stream : Yes
Defeat audio cache : Yes
Make use of C2 pointers : No
Read offset correction : 48
Overread into Lead-In and Lead-Out : No
Fill up missing offset samples with silence : Yes
Delete leading and trailing silent blocks : No
Null samples used in CRC calculations : Yes
Used interface : Native Win32 interface for Win NT & 2000
Gap handling : Appended to previous track
Used output format : User Defined Encoder
Selected bitrate : 768 kBit/s
Quality : High
Add ID3 tag : No
Command line compressor : C:\Program Files\Exact Audio Copy\FLAC\FLAC.EXE
Additional command line options : -6 -V -T "ARTIST=%a" -T "TITLE=%t" -T "ALBUM=%g" -T "DATE=%y" -T "TRACKNUMBER=%n" -T "GENRE=%m" -T "COMMENT=%e" %s -o %d
TOC of the extracted CD
Track | Start | Length | Start sector | End sector
---------------------------------------------------------
1 | 0:00.00 | 3:09.06 | 0 | 14180
2 | 3:09.06 | 9:02.31 | 14181 | 54861
3 | 12:11.37 | 8:04.13 | 54862 | 91174
4 | 20:15.50 | 10:00.04 | 91175 | 136178
5 | 30:15.54 | 15:35.42 | 136179 | 206345
6 | 45:51.21 | 6:46.11 | 206346 | 236806
7 | 52:37.32 | 6:12.69 | 236807 | 264775
8 | 58:50.26 | 16:25.37 | 264776 | 338687
Track 1
Filename C:\Documents and Settings\S\Мои документы\Torrent раздача\01.Francrsco Cusa 'Skrunch'-1. j.d.h..wav
Pre-gap length 0:00:02.00
Peak level 100.0 %
Track quality 100.0 %
Test CRC 84815EF1
Copy CRC 84815EF1
Cannot be verified as accurate (confidence 1) [6F08A020], AccurateRip returned [52338BCF]
Copy OK
Track 2
Filename C:\Documents and Settings\S\Мои документы\Torrent раздача\02.Francrsco Cusa 'Skrunch'-2. blatta.wav
Peak level 100.0 %
Track quality 100.0 %
Test CRC 5D03BAED
Copy CRC 5D03BAED
Cannot be verified as accurate (confidence 1) [34E1070D], AccurateRip returned [A33A17E0]
Copy OK
Track 3
Filename C:\Documents and Settings\S\Мои документы\Torrent раздача\03.Francrsco Cusa 'Skrunch'-3. dr. akagi.wav
Peak level 100.0 %
Track quality 100.0 %
Test CRC 45E952F2
Copy CRC 45E952F2
Cannot be verified as accurate (confidence 1) [572BE404], AccurateRip returned [66002261]
Copy OK
Track 4
Filename C:\Documents and Settings\S\Мои документы\Torrent раздача\04.Francrsco Cusa 'Skrunch'-4. psyco jogging.wav
Peak level 100.0 %
Track quality 99.9 %
Test CRC E4BEC10C
Copy CRC E4BEC10C
Cannot be verified as accurate (confidence 1) [B82E8A33], AccurateRip returned [D61E2BE2]
Copy OK
Track 5
Filename C:\Documents and Settings\S\Мои документы\Torrent раздача\05.Francrsco Cusa 'Skrunch'-5. where`s s. kubrick .wav
Peak level 100.0 %
Track quality 100.0 %
Test CRC A15AD48F
Copy CRC A15AD48F
Cannot be verified as accurate (confidence 1) [7F1C2B54], AccurateRip returned [EBEE3FCB]
Copy OK
Track 6
Filename C:\Documents and Settings\S\Мои документы\Torrent раздача\06.Francrsco Cusa 'Skrunch'-6. buzzati`s capture.wav
Peak level 100.0 %
Track quality 100.0 %
Test CRC EB0406BA
Copy CRC EB0406BA
Cannot be verified as accurate (confidence 1) [14654ADD], AccurateRip returned [92D9D4BD]
Copy OK
Track 7
Filename C:\Documents and Settings\S\Мои документы\Torrent раздача\07.Francrsco Cusa 'Skrunch'-7. beyond gods and devils.wav
Peak level 100.0 %
Track quality 99.9 %
Test CRC F4892125
Copy CRC F4892125
Cannot be verified as accurate (confidence 1) [1C115859], AccurateRip returned [95381FB8]
Copy OK
Track 8
Filename C:\Documents and Settings\S\Мои документы\Torrent раздача\08.Francrsco Cusa 'Skrunch'-8. ... the day before....wav
Peak level 100.0 %
Track quality 100.0 %
Test CRC D0CE0412
Copy CRC D0CE0412
Cannot be verified as accurate (confidence 1) [1FBF72C6], AccurateRip returned [CB17BFB8]
Copy OK
No tracks could be verified as accurate
You may have a different pressing from the one(s) in the database
No errors occurred
End of status report
 
Содержание индексной карты (.CUE)
REM GENRE Avantgarde
REM DATE 2005
REM DISCID 6611A308
REM COMMENT "ExactAudioCopy v0.99pb5"
PERFORMER "Francrsco Cusa 'Skrunch'"
TITLE "Psicopatologia Del Serial Killer"
FILE "01.Francrsco Cusa 'Skrunch'-1. j.d.h..wav" WAVE
TRACK 01 AUDIO
TITLE "1. j.d.h."
PERFORMER "Francrsco Cusa 'Skrunch'"
INDEX 01 00:00:00
FILE "02.Francrsco Cusa 'Skrunch'-2. blatta.wav" WAVE
TRACK 02 AUDIO
TITLE "2. blatta"
PERFORMER "Francrsco Cusa 'Skrunch'"
INDEX 01 00:00:00
FILE "03.Francrsco Cusa 'Skrunch'-3. dr. akagi.wav" WAVE
TRACK 03 AUDIO
TITLE "3. dr. akagi"
PERFORMER "Francrsco Cusa 'Skrunch'"
INDEX 01 00:00:00
FILE "04.Francrsco Cusa 'Skrunch'-4. psyco jogging.wav" WAVE
TRACK 04 AUDIO
TITLE "4. psyco jogging"
PERFORMER "Francrsco Cusa 'Skrunch'"
INDEX 01 00:00:00
FILE "05.Francrsco Cusa 'Skrunch'-5. where`s s. kubrick .wav" WAVE
TRACK 05 AUDIO
TITLE "5. where`s s. kubrick?"
PERFORMER "Francrsco Cusa 'Skrunch'"
INDEX 01 00:00:00
FILE "06.Francrsco Cusa 'Skrunch'-6. buzzati`s capture.wav" WAVE
TRACK 06 AUDIO
TITLE "6. buzzati`s capture"
PERFORMER "Francrsco Cusa 'Skrunch'"
INDEX 01 00:00:00
FILE "07.Francrsco Cusa 'Skrunch'-7. beyond gods and devils.wav" WAVE
TRACK 07 AUDIO
TITLE "7. beyond gods and devils"
PERFORMER "Francrsco Cusa 'Skrunch'"
INDEX 01 00:00:00
FILE "08.Francrsco Cusa 'Skrunch'-8. ... the day before....wav" WAVE
TRACK 08 AUDIO
TITLE "8. ... the day before..."
PERFORMER "Francrsco Cusa 'Skrunch'"
INDEX 01 00:00:00
 
Об исполнителе (группе)
Francesco Cusa - drums/compositions
Carlo Natoli - baritone guitar
Paolo Sorge - guitar
Beppe Scardino - baritone sax
Piero Bittolo Bon - a.sax
Dario De Filippo percussions
Large ensemble:
Tony Cattano - trombone
Riccardo Pittau - tr
Guest: Dean Bowman - vocals
Другие раздачи
http://rutracker.org/forum/search.php?uid=17163016
По всем вопросам пишите личное сообщение пользователю M0p94ok.
09:18
163
Нет комментариев. Ваш будет первым!