Вы используете незарегистрированную версию компонента "Вкладки"!

Поиск

(Hard Bop) John Coltrane — A Love Supreme (1964) — 2010 {Hybrid SACD}, FLAC (tracks+.cue) lossless

(Hard Bop) John Coltrane — A Love Supreme (1964) — 2010 {Hybrid SACD}, FLAC (tracks+.cue) lossless
Треклист:
John Coltrane — A Love Supreme (1964)
Жанр: Hard Bop
Год издания диска: 2010, Hybrid SACD
Издатель (лейбл): Analogue Productions/Impulse!
Номер по каталогу: CIPJ 77 SA
Аудио кодек: FLAC (*.flac)
Тип рипа: tracks+.cue
Битрейт аудио: lossless
Продолжительность: 33:03
Риппер: Bezz
Сканы есть
Треклист:
01. A Love Supreme Part 1: Acknowledgement (7:46)
02. A Love Supreme Part 2: Resolution (7:22)
03. A Love Supreme Part 3: Pursuance \ Part 4: Psalm (17:54)
Personnel:
John Coltrane - ts
McCoy Tyner - p
Jimmy Garrison - b
Elvin Jones - d
Rec.: Van Gelner Studios, Englewood Cliffs, NJ, December 9, 1964.
 
 
Лог создания рипа
Exact Audio Copy V1.0 beta 1 from 15. November 2010
EAC extraction logfile from 26. February 2011, 16:24
John Coltrane / A Love Supreme
Used drive : HL-DT-STDVDRAM GP08NU6B Adapter: 1 ID: 0
Read mode : Secure
Utilize accurate stream : Yes
Defeat audio cache : Yes
Make use of C2 pointers : No
Read offset correction : 103
Overread into Lead-In and Lead-Out : No
Fill up missing offset samples with silence : Yes
Delete leading and trailing silent blocks : No
Null samples used in CRC calculations : Yes
Used interface : Native Win32 interface for Win NT & 2000
Gap handling : Appended to previous track
Used output format : User Defined Encoder
Selected bitrate : 128 kBit/s
Quality : High
Add ID3 tag : No
Command line compressor : C:\Program Files\FLAC\flac.exe
Additional command line options : -8 -V -T "ARTIST=%a" -T "TITLE=%t" -T "ALBUM=%g" -T "DATE=%y" -T "TRACKNUMBER=%n" -T "TOTALTRACKS=%x" -T "GENRE=%m" -T "ALBUM ARTIST=%v" -T "ALBUMARTIST=%v" -T "COMMENT=L2Bits, EAC V1.0 beta 1, Secure Mode, Test & Copy, Acc
TOC of the extracted CD
Track | Start | Length | Start sector | End sector
---------------------------------------------------------
1 | 0:00.00 | 7:46.24 | 0 | 34973
2 | 7:46.24 | 7:22.14 | 34974 | 68137
3 | 15:08.38 | 17:54.05 | 68138 | 148692
Track 1
Filename D:\Bezz Rip\01 - A Love Supreme - A Love Supreme Part 1- Acknowledgement.wav
Pre-gap length 0:00:02.00
Peak level 78.1 %
Extraction speed 1.4 X
Track quality 100.0 %
Test CRC ABF74D94
Copy CRC ABF74D94
Track not present in AccurateRip database
Copy OK
Track 2
Filename D:\Bezz Rip\02 - A Love Supreme - A Love Supreme Part 2- Resolution.wav
Pre-gap length 0:00:00.33
Peak level 82.6 %
Extraction speed 1.6 X
Track quality 100.0 %
Test CRC EAB31CF7
Copy CRC EAB31CF7
Track not present in AccurateRip database
Copy OK
Track 3
Filename D:\Bezz Rip\03 - A Love Supreme - A Love Supreme Part 3- Pursuance - Part 4- Psalm.wav
Pre-gap length 0:00:00.33
Peak level 84.0 %
Extraction speed 2.1 X
Track quality 100.0 %
Test CRC 139EF10A
Copy CRC 139EF10A
Track not present in AccurateRip database
Copy OK
None of the tracks are present in the AccurateRip database
No errors occurred
End of status report
==== Log checksum 70AAF7F55C16E648C479D40F8AD15C39798D14DFADB380B6E7D6A8FD775D87C8 ====
 
Содержание индексной карты (.CUE)
REM GENRE Jazz
REM DATE 2010
REM DISCID 1E07BE03
REM COMMENT "ExactAudioCopy v1.0b1"
PERFORMER "John Coltrane"
TITLE "A Love Supreme"
FILE "01 - A Love Supreme - A Love Supreme Part 1- Acknowledgement.wav" WAVE
TRACK 01 AUDIO
TITLE "A Love Supreme Part 1: Acknowledgement"
PERFORMER "John Coltrane"
INDEX 01 00:00:00
TRACK 02 AUDIO
TITLE "A Love Supreme Part 2: Resolution"
PERFORMER "John Coltrane"
INDEX 00 07:45:66
FILE "02 - A Love Supreme - A Love Supreme Part 2- Resolution.wav" WAVE
INDEX 01 00:00:00
TRACK 03 AUDIO
TITLE "A Love Supreme Part 3: Pursuance \ Part 4: Psalm"
PERFORMER "John Coltrane"
INDEX 00 07:21:56
FILE "03 - A Love Supreme - A Love Supreme Part 3- Pursuance - Part 4- Psalm.wav" WAVE
INDEX 01 00:00:00
Any questions -> support@pro-jazz.com. По всем вопросам пишите -> support@pro-jazz.com
09:19
197
Нет комментариев. Ваш будет первым!