Вы используете незарегистрированную версию компонента "Вкладки"!

Поиск

(Avant-Garde Jazz, Free Jazz) Alice Coltrane Featuring Pharoah Sanders - Journey In Satchidananda - (1970) - 1997, FLAC (tracks+.cue), lossless

Треклист:
Alice Coltrane Featuring Pharoah Sanders - Journey In Satchidananda
Жанр: Avant-Garde Jazz, Free Jazz
Страна-производитель диска: USA
Год издания диска: (1970) - 1997
Издатель (лейбл): Impulse!
Номер по каталогу: IMPD-228
Страна: USA Detroit, Michigan
Аудиокодек: FLAC (*.flac)
Тип рипа: tracks+.cue
Битрейт аудио: lossless
Продолжительность: 00:37:10
Источник (релизер): yowlz
Наличие сканов в содержимом раздачи: да
01. Journey In Satchidananda [06:35]
02. Shiva-Loka [06:32]
03. Stopover Bombay [02:51]
04. Something About John Coltrane [09:40]
05. Isis And Osiris [11:29]
 
Лог создания рипа
Exact Audio Copy V1.0 beta 1 from 15. November 2010
EAC extraction logfile from 15. October 2011, 23:26
Alice Coltrane / Journey In Satchidananda
Used drive : TSSTcorpCDDVDW SH-S203N Adapter: 0 ID: 2
Read mode : Secure
Utilize accurate stream : Yes
Defeat audio cache : Yes
Make use of C2 pointers : No
Read offset correction : 6
Overread into Lead-In and Lead-Out : No
Fill up missing offset samples with silence : Yes
Delete leading and trailing silent blocks : No
Null samples used in CRC calculations : Yes
Used interface : Installed external ASPI interface
Gap handling : Appended to previous track
Used output format : User Defined Encoder
Selected bitrate : 768 kBit/s
Quality : High
Add ID3 tag : No
Command line compressor : C:\Program Files\Exact Audio Copy-NEW\Flac\flac.exe
Additional command line options : -8 -V -T "ARTIST=%a" -T "TITLE=%t" -T "ALBUM=%g" -T "DATE=%y" -T "TRACKNUMBER=%n" -T "TOTALTRACKS=%x" -T "GENRE=%m" -T "ALBUMARTIST=%v" -T "ALBUM ARTIST=%v" -T "COMMENT=EAC V1.01b1, Secure Mode, Test & Copy, AccurateRip, FL
TOC of the extracted CD
Track | Start | Length | Start sector | End sector
---------------------------------------------------------
1 | 0:00.00 | 6:40.25 | 0 | 30024
2 | 6:40.25 | 6:37.47 | 30025 | 59846
3 | 13:17.72 | 2:54.23 | 59847 | 72919
4 | 16:12.20 | 9:44.55 | 72920 | 116774
5 | 25:57.00 | 11:29.62 | 116775 | 168511
Track 1
Filename J:\New Rips\Alice Coltrane - Journey In Satchidananda (1970) [FLAC]\01 - Journey In Satchidananda.wav
Pre-gap length 0:00:02.00
Peak level 90.8 %
Extraction speed 1.9 X
Track quality 100.0 %
Test CRC E480E699
Copy CRC E480E699
Accurately ripped (confidence 8) [1B2B2F71]
Copy OK
Track 2
Filename J:\New Rips\Alice Coltrane - Journey In Satchidananda (1970) [FLAC]\02 - Shiva-Loka.wav
Pre-gap length 0:00:04.35
Peak level 93.2 %
Extraction speed 2.2 X
Track quality 100.0 %
Test CRC FFE0F302
Copy CRC FFE0F302
Accurately ripped (confidence 8) [C7A00849]
Copy OK
Track 3
Filename J:\New Rips\Alice Coltrane - Journey In Satchidananda (1970) [FLAC]\03 - Stopover Bombay.wav
Pre-gap length 0:00:04.67
Peak level 96.7 %
Extraction speed 2.2 X
Track quality 100.0 %
Test CRC D7E78658
Copy CRC D7E78658
Accurately ripped (confidence 8) [DA25B28B]
Copy OK
Track 4
Filename J:\New Rips\Alice Coltrane - Journey In Satchidananda (1970) [FLAC]\04 - Something About John Coltrane.wav
Pre-gap length 0:00:02.43
Peak level 99.1 %
Extraction speed 2.7 X
Track quality 100.0 %
Test CRC C0AB6DFE
Copy CRC C0AB6DFE
Accurately ripped (confidence 8) [CFFB580F]
Copy OK
Track 5
Filename J:\New Rips\Alice Coltrane - Journey In Satchidananda (1970) [FLAC]\05 - Isis And Osiris.wav
Pre-gap length 0:00:04.48
Peak level 97.3 %
Extraction speed 3.1 X
Track quality 100.0 %
Test CRC B597863D
Copy CRC B597863D
Accurately ripped (confidence 9) [A02DD6A8]
Copy OK
All tracks accurately ripped
No errors occurred
End of status report
==== Log checksum 98B8002A53F58CE3509597D3EC5E6CB19CDD51A41297FAFE878364AB9B3D676E ====
 
Содержание индексной карты (.CUE)
REM GENRE Jazz
REM DATE 1970
REM DISCID 4908C605
REM COMMENT "ExactAudioCopy v1.0b1"
PERFORMER "Alice Coltrane"
TITLE "Journey In Satchidananda"
FILE "01 - Journey In Satchidananda.flac" WAVE
TRACK 01 AUDIO
TITLE "Journey In Satchidananda"
PERFORMER "Alice Coltrane"
INDEX 01 00:00:00
TRACK 02 AUDIO
TITLE "Shiva-Loka"
PERFORMER "Alice Coltrane"
INDEX 00 06:35:65
FILE "02 - Shiva-Loka.flac" WAVE
INDEX 01 00:00:00
TRACK 03 AUDIO
TITLE "Stopover Bombay"
PERFORMER "Alice Coltrane"
INDEX 00 06:32:55
FILE "03 - Stopover Bombay.flac" WAVE
INDEX 01 00:00:00
TRACK 04 AUDIO
TITLE "Something About John Coltrane"
PERFORMER "Alice Coltrane"
INDEX 00 02:51:55
FILE "04 - Something About John Coltrane.flac" WAVE
INDEX 01 00:00:00
TRACK 05 AUDIO
TITLE "Isis And Osiris"
PERFORMER "Alice Coltrane"
INDEX 00 09:40:07
FILE "05 - Isis And Osiris.flac" WAVE
INDEX 01 00:00:00
 
Состав
Alice Coltrane — harp, piano
Pharoah Sanders — soprano saxophone, percussion
Vishnu Wood — oud (on track 5)
Charlie Haden — bass (on track 5)
Cecil McBee — bass
Tulsi — tambura
Rashied Ali — drums
Majid Shabazz — bells, tambourine
По всем вопросам пишите личное сообщение пользователю M0p94ok.
17:56
287
Нет комментариев. Ваш будет первым!