Поиск

(Avant-Garde) Anthony Davis (w. Dave Samuels, J.D. Parran, Pheeroan akLaff etc) {Gramavision / Rhino Records R2 79428, USA / Canada} - Hemispheres - 1983, APE (image+.cue) lossless

(Avant-Garde) Anthony Davis (w. Dave Samuels, J.D. Parran, Pheeroan akLaff etc) {Gramavision / Rhino Records R2 79428, USA / Canada} - Hemispheres - 1983, APE (image+.cue) lossless
Треклист:
Anthony Davis - Hemispheres
Жанр: Avant-Garde
Страна-производитель диска: USA / Canada
Год издания диска: 1983
Издатель (лейбл): Gramavision / Rhino Records
Номер по каталогу: R2 79428
Аудио кодек: APE (*.ape)
Тип рипа: image+.cue
Битрейт аудио: lossless
Продолжительность: 00:38:58
Источник (релизер): barin99
Наличие сканов в содержимом раздачи: да
Треклист:
Hemispheres, One
1. Mvt I - Esu at the Crossroads 4:53
2. Mvt II - Little Richard's New Wave 8:33
3. Mvt III - Ifa: The Oracle - Esu the Trickster 4:57
Hemispheres, Two
4. Mvt IV - A Walk Through the Shadow 13:30
5. Mvt V - Clonetics 7:04
Recorded at Vanguard Studios, New York City in July, 1983
Mixed by David Baker at Gramavision Studio, New York City in August, 1983
Anthony Davis — Piano
Dwight Andrews — Clarinet, Flute, Piccolo, Sax (Soprano)
J.D. Parran — Clarinet, E Flat Clarinet
Leo Smith — Trumpet
Shem Guibbory — Violin
Eugene Friesen — Cello
Dave Samuels — Marimba, Vibraphone
Rick Rozie — Bass
Pheeroan akLaff — Drums, Percussion
All compositions by Anthony Davis
Cover Art - Francesco Clemente
 
Лог создания рипа (EAC Log)
Exact Audio Copy V1.0 beta 1 from 15. November 2010
EAC extraction logfile from 22. October 2011, 20:49
Anthony Davis / Hemispheres
Used drive : TSSTcorpDVD+-RW TS-L532B Adapter: 1 ID: 0
Read mode : Secure
Utilize accurate stream : Yes
Defeat audio cache : Yes
Make use of C2 pointers : No
Read offset correction : 704
Overread into Lead-In and Lead-Out : No
Fill up missing offset samples with silence : Yes
Delete leading and trailing silent blocks : No
Null samples used in CRC calculations : Yes
Used interface : Native Win32 interface for Win NT & 2000
Used output format : Internal WAV Routines
Sample format : 44.100 Hz; 16 Bit; Stereo
TOC of the extracted CD
Track | Start | Length | Start sector | End sector
---------------------------------------------------------
1 | 0:00.00 | 4:53.55 | 0 | 22029
2 | 4:53.55 | 8:33.10 | 22030 | 60514
3 | 13:26.65 | 4:57.02 | 60515 | 82791
4 | 18:23.67 | 13:30.35 | 82792 | 143576
5 | 31:54.27 | 7:04.48 | 143577 | 175424
Range status and errors
Selected range
Filename C:\Documents and Settings\VB\My Documents\BARIN99\Anthony Davis - Hemispheres\Anthony Davis - Hemispheres.wav
Peak level 69.6 %
Extraction speed 0.3 X
Range quality 100.0 %
Copy CRC 498FD490
Copy OK
No errors occurred
AccurateRip summary
Track 1 accurately ripped (confidence 1) [B44071D8]
Track 2 accurately ripped (confidence 1) [E678EEAA]
Track 3 accurately ripped (confidence 1) [BAD1DFFD]
Track 4 accurately ripped (confidence 1) [F72E7187]
Track 5 cannot be verified as accurate (confidence 1) [9E22BC95], AccurateRip returned [E9020D0A]
4 track(s) accurately ripped
1 track(s) could not be verified as accurate
Some tracks could not be verified as accurate
End of status report
 
Содержание индексной карты (.CUE)
REM GENRE Jazz
REM DISCID 3A092305
REM COMMENT "ExactAudioCopy v1.0b1"
PERFORMER "Anthony Davis"
TITLE "Hemispheres"
FILE "Anthony Davis - Hemispheres.ape" WAVE
TRACK 01 AUDIO
TITLE "Mvt I - Esu At The Crossroads"
PERFORMER "Anthony Davis"
INDEX 01 00:00:00
TRACK 02 AUDIO
TITLE "Mvt II - Little Richard's New Wave"
PERFORMER "Anthony Davis"
INDEX 01 04:53:55
TRACK 03 AUDIO
TITLE "Mvt III - Ifa: The Oracle - Esu The Trickster"
PERFORMER "Anthony Davis"
INDEX 00 13:25:62
INDEX 01 13:26:65
TRACK 04 AUDIO
TITLE "Mvt IV - A Walk Through The Shadow"
PERFORMER "Anthony Davis"
INDEX 00 18:23:55
INDEX 01 18:23:67
TRACK 05 AUDIO
TITLE "Mvt V - Clonetics"
PERFORMER "Anthony Davis"
INDEX 00 31:52:25
INDEX 01 31:54:27
 
AMG
"Written as music to accompany the choreography of Molissa Fenley, Anthony Davis followed the huge artistic (if not commercial) success of his albums Episteme and Variations in Dreamtime with yet another wonderful recording along similar lines. Using many of the same musicians and, in fact, recycling some of the same thematic material (as he was to do often in his career), Davis once again finds enormous richness and power in a territory straddling advanced jazz and contemporary minimalism, here even enjoining the services of Steve Reich's violinist of choice, Shem Guibbory. The compositions combine propulsive, oddly metered rhythms with fascinating and often gorgeous melodies including, especially his bitterly beautiful 'A Walk in the Shadows,' here given arguably its finest, most intense performance with Guibbory doing gut-wrenching work. The ensemble is incredibly tight and features superb playing by, among others, trumpeter Leo Smith and trombonist George Lewis. The cover painting by Francesco Clemente and the portrait photograph by Robert Mapplethorpe indicate how closely Davis was becoming involved with the New York avant-garde in the early '80s. This would lead to an increased 'classicalization' of his work, largely to its detriment, in oncoming years, and Hemispheres would prove to be perhaps his last unqualified success. Very highly recommended."
По всем вопросам пишите личное сообщение пользователю M0p94ok.
17:57
348
Нет комментариев. Ваш будет первым!