Поиск

(Free Improvisation) Shift (Frank Gratkowski, Thomas Lehn, Philip Zoubek, Dieter Manderscheid, Martin Blume) - Songs From Aipotu - 2011, FLAC (image+.cue), lossless

(Free Improvisation) Shift (Frank Gratkowski, Thomas Lehn, Philip Zoubek, Dieter Manderscheid, Martin Blume) - Songs From Aipotu - 2011, FLAC (image+.cue), lossless
Треклист:
Shift / Songs From Aipotu
Жанр: Free Improvisation
Страна-производитель диска: UK
Год издания диска: 2011
Издатель (лейбл): Leo Records
Номер по каталогу: LR 599
Аудиокодек: FLAC (*.flac)
Тип рипа: image+.cue
Битрейт аудио: lossless
Продолжительность: 62:59
Источник (релизер): cd
Наличие сканов в содержимом раздачи: нет
Треклист:
1 Introduction 39:37
2 Modern Classics 11:55
3 Gavotte 5:03
4 Shot 6:14
 
Лог создания рипа
Exact Audio Copy V1.0 beta 2 from 29. April 2011
EAC extraction logfile from 31. October 2011, 23:16
Shift / Songs from Aipotu
Used drive : Optiarc DVD RW AD-7170A Adapter: 0 ID: 0
Read mode : Secure
Utilize accurate stream : Yes
Defeat audio cache : Yes
Make use of C2 pointers : No
Read offset correction : 48
Overread into Lead-In and Lead-Out : No
Fill up missing offset samples with silence : Yes
Delete leading and trailing silent blocks : No
Null samples used in CRC calculations : Yes
Used interface : Native Win32 interface for Win NT & 2000
Used output format : User Defined Encoder
Selected bitrate : 320 kBit/s
Quality : High
Add ID3 tag : No
Command line compressor : C:\Program Files\Exact Audio Copy\Flac\flac.exe
Additional command line options : -V -8 -T "Date=%year%" -T "Genre=%genre%" %source%
TOC of the extracted CD
Track | Start | Length | Start sector | End sector
---------------------------------------------------------
1 | 0:00.00 | 39:42.74 | 0 | 178723
2 | 39:42.74 | 11:55.37 | 178724 | 232385
3 | 51:38.36 | 5:06.38 | 232386 | 255373
4 | 56:44.74 | 6:14.37 | 255374 | 283460
Range status and errors
Selected range
Filename C:\EAC\Downloads\Shift - Songs from Aipotu.wav
Peak level 82.6 %
Extraction speed 2.0 X
Range quality 99.9 %
Test CRC 98EEDD46
Copy CRC 98EEDD46
Copy OK
No errors occurred
AccurateRip summary
Track 1 not present in database
Track 2 not present in database
Track 3 not present in database
Track 4 not present in database
None of the tracks are present in the AccurateRip database
End of status report
==== Log checksum 853FBBA6A545DC324E01138E7826289CAC8F2758CD6CBD9FC94B9565260E270A ====
 
Содержание индексной карты (.CUE)
REM GENRE "Free Improvisation"
REM DATE 2011
REM DISCID 240EC304
REM COMMENT "ExactAudioCopy v1.0b2"
PERFORMER "Shift"
TITLE "Songs from Aipotu"
FILE "Shift - Songs from Aipotu.flac" WAVE
TRACK 01 AUDIO
TITLE "introduction"
PERFORMER "Shift"
ISRC 000000000000
INDEX 01 00:00:00
TRACK 02 AUDIO
TITLE "modern classics"
PERFORMER "Shift"
ISRC 000000000000
INDEX 00 39:36:74
INDEX 01 39:42:74
TRACK 03 AUDIO
TITLE "gavotte"
PERFORMER "Shift"
ISRC 000000000000
INDEX 01 51:38:36
TRACK 04 AUDIO
TITLE "shot"
PERFORMER "Shift"
ISRC 000000000000
INDEX 00 56:41:74
INDEX 01 56:44:74
 
Состав
Frank Gratkowski (reeds)
Thomas Lehn (analogue synthesizer)
Philip Zoubek (piano)
Dieter Manderscheid (double bass)
Martin Blume (drums)
По всем вопросам пишите личное сообщение пользователю M0p94ok.
16:57
265
Нет комментариев. Ваш будет первым!