Вы используете незарегистрированную версию компонента "Вкладки"!

Поиск

(Avant-Garde Jazz, Free Improvisation) The Francis Wong Quartet - Pilgrimage - 1997, FLAC (tracks+.cue), lossless

(Avant-Garde Jazz, Free Improvisation) The Francis Wong Quartet - Pilgrimage - 1997, FLAC (tracks+.cue), lossless
Треклист:
•The Francis Wong Quartet - Pilgrimage•
Жанр: Avant-Garde Jazz, Free Improvisation
Страна-производитель диска: U.S.A.
Год издания диска: 1997
Издатель (лейбл): Music & Arts
Номер по каталогу: CD-974
Аудиокодек: FLAC (*.flac)
Тип рипа: tracks+.cue
Битрейт аудио: lossless
Продолжительность: 00:56:21
Источник (релизер): Рип с диска.
Наличие сканов в содержимом раздачи: да
Треклист:
01. Procession
02. Prayer
03. Insight
04. One Point Focus
05. Momentary Crisis
06. Storytelling
07. Megumi's March
08. Return
09. Quartet
10. Pigeons (for Genny Lim)
11. Taikoism
12. Bipolar Improvisation
13. Minlatures
Personnel:
Francis Wong - ts,shinobue, fl, violin
Glenn Horiuchi - p, shamisen
Elliot Humberto Kavee - perc.,cello
Royal Hartigan - perc.
 
Лог создания рипа
Exact Audio Copy V1.0 beta 3 from 29. August 2011
Отчёт EAC об извлечении, выполненном 31. декабря 2011, 17:31
The Francis Wong Quartet / Pilgrimage
Дисковод: TSSTcorpCDDVDW SH-S223C Adapter: 5 ID: 0
Режим чтения : Достоверность
Использование точного потока : Да
Отключение кэша аудио : Да
Использование указателей C2 : Нет
Коррекция смещения при чтении : 697
Способность читать области Lead-in и Lead-out : Нет
Заполнение пропущенных сэмплов тишиной : Да
Удаление блоков с тишиной в начале и конце : Нет
При вычислениях CRC использовались нулевые сэмплы : Да
Интерфейс : Установленный внешний ASPI-интерфейс
Обработка зазоров : Добавлено к предыдущему треку
Выходной формат : Пользовательский кодировщик
Выбранный битрейт : 128 kBit/s
Качество : Высокий
Добавление ID3-тега : Нет
Утилита сжатия : C:\Program Files\Exact Audio Copy\Flac\flac.exe
Дополнительные параметры : -V -8 -T "Genre=%genre%" -T "Artist=%artist%" -T "Title=%title%" -T "Album=%albumtitle%" -T "Date=%year%" -T "Tracknumber=%tracknr%" -T "Comment=%comment%" %source%
TOC извлечённого CD
Трек | Старт | Длительность | Начальный сектор | Конечный сектор
---------------------------------------------------------------------
1 | 0:00.00 | 6:09.22 | 0 | 27696
2 | 6:09.22 | 4:21.53 | 27697 | 47324
3 | 10:31.00 | 3:00.32 | 47325 | 60856
4 | 13:31.32 | 3:50.58 | 60857 | 78164
5 | 17:22.15 | 3:04.47 | 78165 | 92011
6 | 20:26.62 | 4:32.63 | 92012 | 112474
7 | 24:59.50 | 3:00.07 | 112475 | 125981
8 | 27:59.57 | 2:18.48 | 125982 | 136379
9 | 30:18.30 | 5:10.57 | 136380 | 159686
10 | 35:29.12 | 5:43.70 | 159687 | 185481
11 | 41:13.07 | 6:28.25 | 185482 | 214606
12 | 47:41.32 | 5:35.23 | 214607 | 239754
13 | 53:16.55 | 3:07.47 | 239755 | 253826
Трек 1
Имя файла C:\Шахматы\1997.The Francis Wong Quartet - Pilgrimage\01. Procession.wav
Длина предзазора 0:00:02.00
Пиковый уровень 56.3 %
Скорость извлечения 2.2 X
Качество трека 100.0 %
CRC теста 4C04A86D
CRC копии 4C04A86D
Трек не обнаружен в базе AccurateRip
Копирование... OK
Трек 2
Имя файла C:\Шахматы\1997.The Francis Wong Quartet - Pilgrimage\02. Prayer.wav
Длина предзазора 0:00:05.60
Пиковый уровень 90.1 %
Скорость извлечения 2.4 X
Качество трека 100.0 %
CRC теста 12A7154A
CRC копии 12A7154A
Трек не обнаружен в базе AccurateRip
Копирование... OK
Трек 3
Имя файла C:\Шахматы\1997.The Francis Wong Quartet - Pilgrimage\03. Insight.wav
Длина предзазора 0:00:06.50
Пиковый уровень 49.3 %
Скорость извлечения 2.4 X
Качество трека 100.0 %
CRC теста F9222F44
CRC копии F9222F44
Трек не обнаружен в базе AccurateRip
Копирование... OK
Трек 4
Имя файла C:\Шахматы\1997.The Francis Wong Quartet - Pilgrimage\04. One Point Focus.wav
Длина предзазора 0:00:04.02
Пиковый уровень 53.8 %
Скорость извлечения 2.6 X
Качество трека 100.0 %
CRC теста 29E382AE
CRC копии 29E382AE
Трек не обнаружен в базе AccurateRip
Копирование... OK
Трек 5
Имя файла C:\Шахматы\1997.The Francis Wong Quartet - Pilgrimage\05. Momentary Crisis.wav
Длина предзазора 0:00:06.13
Пиковый уровень 58.4 %
Скорость извлечения 2.7 X
Качество трека 100.0 %
CRC теста DCEF5A81
CRC копии DCEF5A81
Трек не обнаружен в базе AccurateRip
Копирование... OK
Трек 6
Имя файла C:\Шахматы\1997.The Francis Wong Quartet - Pilgrimage\06. Storytelling.wav
Длина предзазора 0:00:04.35
Пиковый уровень 26.3 %
Скорость извлечения 3.0 X
Качество трека 100.0 %
CRC теста AEB875DA
CRC копии AEB875DA
Трек не обнаружен в базе AccurateRip
Копирование... OK
Трек 7
Имя файла C:\Шахматы\1997.The Francis Wong Quartet - Pilgrimage\07. Megumi's March.wav
Длина предзазора 0:00:06.53
Пиковый уровень 32.6 %
Скорость извлечения 2.9 X
Качество трека 100.0 %
CRC теста 2AE7CB37
CRC копии 2AE7CB37
Трек не обнаружен в базе AccurateRip
Копирование... OK
Трек 8
Имя файла C:\Шахматы\1997.The Francis Wong Quartet - Pilgrimage\08. Return.wav
Длина предзазора 0:00:03.47
Пиковый уровень 51.8 %
Скорость извлечения 2.9 X
Качество трека 100.0 %
CRC теста 5D18ECC0
CRC копии 5D18ECC0
Трек не обнаружен в базе AccurateRip
Копирование... OK
Трек 9
Имя файла C:\Шахматы\1997.The Francis Wong Quartet - Pilgrimage\09. Quartet.wav
Длина предзазора 0:00:05.10
Пиковый уровень 60.4 %
Скорость извлечения 3.1 X
Качество трека 99.9 %
CRC теста 0B15058A
CRC копии 0B15058A
Трек не обнаружен в базе AccurateRip
Копирование... OK
Трек 10
Имя файла C:\Шахматы\1997.The Francis Wong Quartet - Pilgrimage\10. Pigeons (for Genny Lim).wav
Длина предзазора 0:00:04.53
Пиковый уровень 38.4 %
Скорость извлечения 3.3 X
Качество трека 99.9 %
CRC теста EDDF3793
CRC копии EDDF3793
Трек не обнаружен в базе AccurateRip
Копирование... OK
Трек 11
Имя файла C:\Шахматы\1997.The Francis Wong Quartet - Pilgrimage\11. Taikoism.wav
Длина предзазора 0:00:04.02
Пиковый уровень 75.9 %
Скорость извлечения 3.8 X
Качество трека 100.0 %
CRC теста 8FEF91F3
CRC копии 8FEF91F3
Трек не обнаружен в базе AccurateRip
Копирование... OK
Трек 12
Имя файла C:\Шахматы\1997.The Francis Wong Quartet - Pilgrimage\12. Bipolar Improvisation.wav
Длина предзазора 0:00:02.60
Пиковый уровень 59.5 %
Скорость извлечения 3.6 X
Качество трека 99.9 %
CRC теста FE7C3D05
CRC копии FE7C3D05
Трек не обнаружен в базе AccurateRip
Копирование... OK
Трек 13
Имя файла C:\Шахматы\1997.The Francis Wong Quartet - Pilgrimage\13. Minlatures.wav
Длина предзазора 0:00:01.21
Пиковый уровень 63.1 %
Скорость извлечения 3.7 X
Качество трека 100.0 %
CRC теста 394B8705
CRC копии 394B8705
Трек не обнаружен в базе AccurateRip
Копирование... OK
Ни одного трека нет в базе AccurateRip
Ошибок не произошло
Конец отчёта
==== Контрольная сумма отчёта C2F772C659E5D1F5F66D897DBF1C6FC39D72415A0D6D2227BEEAB44227C854A1 ====
 
Содержание индексной карты (.CUE)
REM GENRE "Avant-Garde Jazz"
REM DATE 1997
REM DISCID 9E0D380D
REM COMMENT "ExactAudioCopy v1.0b3"
PERFORMER "The Francis Wong Quartet"
TITLE "Pilgrimage"
FILE "01. Procession.wav" WAVE
TRACK 01 AUDIO
TITLE "Procession"
PERFORMER "The Francis Wong Quartet"
INDEX 01 00:00:00
TRACK 02 AUDIO
TITLE "Prayer"
PERFORMER "The Francis Wong Quartet"
INDEX 00 06:03:37
FILE "02. Prayer.wav" WAVE
INDEX 01 00:00:00
TRACK 03 AUDIO
TITLE "Insight"
PERFORMER "The Francis Wong Quartet"
INDEX 00 04:15:03
FILE "03. Insight.wav" WAVE
INDEX 01 00:00:00
TRACK 04 AUDIO
TITLE "One Point Focus"
PERFORMER "The Francis Wong Quartet"
INDEX 00 02:56:30
FILE "04. One Point Focus.wav" WAVE
INDEX 01 00:00:00
TRACK 05 AUDIO
TITLE "Momentary Crisis"
PERFORMER "The Francis Wong Quartet"
INDEX 00 03:44:45
FILE "05. Momentary Crisis.wav" WAVE
INDEX 01 00:00:00
TRACK 06 AUDIO
TITLE "Storytelling"
PERFORMER "The Francis Wong Quartet"
INDEX 00 03:00:12
FILE "06. Storytelling.wav" WAVE
INDEX 01 00:00:00
TRACK 07 AUDIO
TITLE "Megumi's March"
PERFORMER "The Francis Wong Quartet"
INDEX 00 04:26:10
FILE "07. Megumi's March.wav" WAVE
INDEX 01 00:00:00
TRACK 08 AUDIO
TITLE "Return"
PERFORMER "The Francis Wong Quartet"
INDEX 00 02:56:35
FILE "08. Return.wav" WAVE
INDEX 01 00:00:00
TRACK 09 AUDIO
TITLE "Quartet"
PERFORMER "The Francis Wong Quartet"
INDEX 00 02:13:38
FILE "09. Quartet.wav" WAVE
INDEX 01 00:00:00
TRACK 10 AUDIO
TITLE "Pigeons (for Genny Lim)"
PERFORMER "The Francis Wong Quartet"
INDEX 00 05:06:04
FILE "10. Pigeons (for Genny Lim).wav" WAVE
INDEX 01 00:00:00
TRACK 11 AUDIO
TITLE "Taikoism"
PERFORMER "The Francis Wong Quartet"
INDEX 00 05:39:68
FILE "11. Taikoism.wav" WAVE
INDEX 01 00:00:00
TRACK 12 AUDIO
TITLE "Bipolar Improvisation"
PERFORMER "The Francis Wong Quartet"
INDEX 00 06:25:40
FILE "12. Bipolar Improvisation.wav" WAVE
INDEX 01 00:00:00
TRACK 13 AUDIO
TITLE "Minlatures"
PERFORMER "The Francis Wong Quartet"
INDEX 00 05:34:02
FILE "13. Minlatures.wav" WAVE
INDEX 01 00:00:00
Any questions -> support@pro-jazz.com. По всем вопросам пишите -> support@pro-jazz.com
20:38
305
Нет комментариев. Ваш будет первым!