Вы используете незарегистрированную версию компонента "Вкладки"!

Поиск

(Free Improvisation) Leroy Jenkins feat. Muhal Richard Abrams - Lifelong Ambitions - 1993, FLAC (tracks+.cue), lossless

(Free Improvisation) Leroy Jenkins feat. Muhal Richard Abrams - Lifelong Ambitions - 1993, FLAC (tracks+.cue), lossless
Треклист:
Leroy Jenkins feat. Muhal Richard Abrams - Lifelong Ambitions
Жанр: Free Improvisation
Страна-производитель диска: Italy
Год издания диска: 1993
Издатель (лейбл): Black Saint Records
Номер по каталогу: BSR 120 033-2
Аудиокодек: FLAC (*.flac)
Тип рипа: tracks+.cue
Битрейт аудио: lossless
Продолжительность: 41:02
Источник (релизер): собственный рип с оригинального диска
Наличие сканов в содержимом раздачи: да
Треклист:
01. Greetings and Salutations
02. Meditation
03. Happiness
04. The Blues
05. The Weird World
06. The Father, The Son, The Holy Ghost
 
Лог создания рипа
Exact Audio Copy V1.0 beta 2 from 29. April 2011
EAC extraction logfile from 25. December 2011, 12:08
Leroy Jenkins / Lifelong Ambitions
Used drive : TSSTcorpCDDVDW SH-S222A Adapter: 1 ID: 0
Read mode : Secure
Utilize accurate stream : Yes
Defeat audio cache : Yes
Make use of C2 pointers : No
Read offset correction : 6
Overread into Lead-In and Lead-Out : No
Fill up missing offset samples with silence : Yes
Delete leading and trailing silent blocks : No
Null samples used in CRC calculations : Yes
Used interface : Native Win32 interface for Win NT & 2000
Gap handling : Appended to previous track
Used output format : User Defined Encoder
Selected bitrate : 896 kBit/s
Quality : High
Add ID3 tag : No
Command line compressor : C:\Tool\CD\EAC10\FLAC\FLAC.EXE
Additional command line options : -6 -V -T "ARTIST=%artist%" -T "TITLE=%title%" -T "ALBUM=%albumtitle%" -T "DATE=%year%" -T "TRACKNUMBER=%tracknr%" -T "GENRE=%genre%" -T "COMMENT=%comment%" -T "BAND=%albuminterpret%" -T "COMPOSER=%composer%" %haslyrics%--ta
TOC of the extracted CD
Track | Start | Length | Start sector | End sector
---------------------------------------------------------
1 | 0:00.33 | 6:42.25 | 33 | 30207
2 | 6:42.58 | 6:45.57 | 30208 | 60639
3 | 13:28.40 | 6:53.68 | 60640 | 91682
4 | 20:22.33 | 6:31.25 | 91683 | 121032
5 | 26:53.58 | 6:43.50 | 121033 | 151307
6 | 33:37.33 | 7:29.00 | 151308 | 184982
Track 1
Filename C:\! UPLOAD\Leroy Jenkins - Lifelong Ambitions (1981) [FLAC] {Black Saint}\01 - Greetings And Salutations.wav
Pre-gap length 0:00:02.33
Peak level 79.5 %
Extraction speed 3.3 X
Track quality 100.0 %
Test CRC 21A14609
Copy CRC 21A14609
Accurately ripped (confidence 1) [ED7D3A16] (AR v1)
Copy OK
Track 2
Filename C:\! UPLOAD\Leroy Jenkins - Lifelong Ambitions (1981) [FLAC] {Black Saint}\02 - Meditation.wav
Peak level 90.2 %
Extraction speed 3.3 X
Track quality 100.0 %
Test CRC 3ADE2FBB
Copy CRC 3ADE2FBB
Accurately ripped (confidence 1) [948258EC] (AR v1)
Copy OK
Track 3
Filename C:\! UPLOAD\Leroy Jenkins - Lifelong Ambitions (1981) [FLAC] {Black Saint}\03 - Happiness.wav
Peak level 83.6 %
Extraction speed 3.3 X
Track quality 100.0 %
Test CRC 6FFFABEE
Copy CRC 6FFFABEE
Accurately ripped (confidence 1) [C968DFF9] (AR v1)
Copy OK
Track 4
Filename C:\! UPLOAD\Leroy Jenkins - Lifelong Ambitions (1981) [FLAC] {Black Saint}\04 - The Blues.wav
Peak level 85.8 %
Extraction speed 3.3 X
Track quality 100.0 %
Test CRC 3873068B
Copy CRC 3873068B
Accurately ripped (confidence 1) [92A14FA4] (AR v1)
Copy OK
Track 5
Filename C:\! UPLOAD\Leroy Jenkins - Lifelong Ambitions (1981) [FLAC] {Black Saint}\05 - The Weird World.wav
Peak level 86.9 %
Extraction speed 3.3 X
Track quality 100.0 %
Test CRC A7EC8C56
Copy CRC A7EC8C56
Accurately ripped (confidence 1) [F5B480E7] (AR v1)
Copy OK
Track 6
Filename C:\! UPLOAD\Leroy Jenkins - Lifelong Ambitions (1981) [FLAC] {Black Saint}\06 - The Father, The Son, The Holy Ghost.wav
Peak level 89.1 %
Extraction speed 3.3 X
Track quality 100.0 %
Test CRC CB020B75
Copy CRC CB020B75
Accurately ripped (confidence 1) [5C9BFBB1] (AR v1)
Copy OK
All tracks accurately ripped
No errors occurred
End of status report
==== Log checksum 0091C2E582C5FBE4D190AEA9F357E76C80ADBDCC59EB694630A3D4E5742189BA ====
 
Содержание индексной карты (.CUE)
REM GENRE Jazz
REM DATE 1981
REM DISCID 3509A206
REM COMMENT "ExactAudioCopy v1.0b2"
PERFORMER "Leroy Jenkins"
TITLE "Lifelong Ambitions"
FILE "01 - Greetings And Salutations.wav" WAVE
TRACK 01 AUDIO
TITLE "Greetings And Salutations"
PERFORMER "Leroy Jenkins"
PREGAP 00:00:33
INDEX 01 00:00:00
FILE "02 - Meditation.wav" WAVE
TRACK 02 AUDIO
TITLE "Meditation"
PERFORMER "Leroy Jenkins"
INDEX 01 00:00:00
FILE "03 - Happiness.wav" WAVE
TRACK 03 AUDIO
TITLE "Happiness"
PERFORMER "Leroy Jenkins"
INDEX 01 00:00:00
FILE "04 - The Blues.wav" WAVE
TRACK 04 AUDIO
TITLE "The Blues"
PERFORMER "Leroy Jenkins"
INDEX 01 00:00:00
FILE "05 - The Weird World.wav" WAVE
TRACK 05 AUDIO
TITLE "The Weird World"
PERFORMER "Leroy Jenkins"
INDEX 01 00:00:00
FILE "06 - The Father, The Son, The Holy Ghost.wav" WAVE
TRACK 06 AUDIO
TITLE "The Father, The Son, The Holy Ghost"
PERFORMER "Leroy Jenkins"
INDEX 01 00:00:00
Доп. информация:
Recorded live at Washington Square Church, New York on March 11, 1977.
 
Об альбоме (by Ron Wynn)
Leroy Jenkins, free jazz's greatest violinist, has always worked best in intimate situations with equally talented partners. He certainly had the optimum conditions on this duet date pairing him with outstanding pianist, composer, arranger, and conductor Muhal Richard Abrams. The duo played six Jenkins compositions for the session, which was recorded live. Abrams and Jenkins frequently alternate roles, letting each other set the pace, never colliding, and forging a highly effective musical partnership. Jenkins' whiplash lines, percussive effects and seamless blend of free and blues influences was capably contrasted by Abrams' driving, soulful piano phrases and solos.
 
Состав
Muhal Richard Abrams - piano
Leroy Jenkins - violin
Any questions -> support@pro-jazz.com. По всем вопросам пишите -> support@pro-jazz.com
20:39
337
Нет комментариев. Ваш будет первым!