Вы используете незарегистрированную версию компонента "Вкладки"!

Поиск

(Free Jazz) Jimmy Lyons Quintet - Give It Up - 1993, FLAC (tracks+.cue), lossless

(Free Jazz) Jimmy Lyons Quintet - Give It Up - 1993, FLAC (tracks+.cue), lossless
Треклист:
Jimmy Lyons Quintet - Give It Up
Жанр: Free Jazz
Страна-производитель диска: Italy
Год издания диска: 1993
Издатель (лейбл): Black Saint Records
Номер по каталогу: BSR 0087
Аудиокодек: FLAC (*.flac)
Тип рипа: tracks+.cue
Битрейт аудио: lossless
Продолжительность: 44:26
Источник (релизер): собственный рип с оригинального диска
Наличие сканов в содержимом раздачи: да
Треклист:
01. Give It Up 10:10
02. Methods 11:13
03. Never 19:16
04. Ballada 3:31
 
Лог создания рипа
Exact Audio Copy V1.0 beta 2 from 29. April 2011
EAC extraction logfile from 25. December 2011, 14:22
Jimmy Lyons Quintet / Give It Up
Used drive : TSSTcorpCDDVDW SH-S222A Adapter: 1 ID: 0
Read mode : Secure
Utilize accurate stream : Yes
Defeat audio cache : Yes
Make use of C2 pointers : No
Read offset correction : 6
Overread into Lead-In and Lead-Out : No
Fill up missing offset samples with silence : Yes
Delete leading and trailing silent blocks : No
Null samples used in CRC calculations : Yes
Used interface : Native Win32 interface for Win NT & 2000
Gap handling : Appended to previous track
Used output format : User Defined Encoder
Selected bitrate : 896 kBit/s
Quality : High
Add ID3 tag : No
Command line compressor : C:\Tool\CD\EAC10\FLAC\FLAC.EXE
Additional command line options : -6 -V -T "ARTIST=%artist%" -T "TITLE=%title%" -T "ALBUM=%albumtitle%" -T "DATE=%year%" -T "TRACKNUMBER=%tracknr%" -T "GENRE=%genre%" -T "COMMENT=%comment%" -T "BAND=%albuminterpret%" -T "COMPOSER=%composer%" %haslyrics%--ta
TOC of the extracted CD
Track | Start | Length | Start sector | End sector
---------------------------------------------------------
1 | 0:00.33 | 10:19.57 | 33 | 46514
2 | 10:20.15 | 11:12.55 | 46515 | 96969
3 | 21:32.70 | 19:22.70 | 96970 | 184189
4 | 40:55.65 | 3:33.65 | 184190 | 200229
Track 1
Filename C:\! UPLOAD\Jimmy Lyons Quintet - Give It Up (1985) [FLAC] {Black Saint}\01 - Give It Up.wav
Pre-gap length 0:00:02.33
Peak level 98.5 %
Extraction speed 3.4 X
Track quality 100.0 %
Test CRC B92109A1
Copy CRC B92109A1
Accurately ripped (confidence 3) [1050FC9A] (AR v1)
Copy OK
Track 2
Filename C:\! UPLOAD\Jimmy Lyons Quintet - Give It Up (1985) [FLAC] {Black Saint}\02 - Methods.wav
Pre-gap length 0:00:03.20
Peak level 100.0 %
Extraction speed 3.4 X
Track quality 100.0 %
Test CRC 0DEEF5AE
Copy CRC 0DEEF5AE
Accurately ripped (confidence 3) [F46898EF] (AR v1)
Copy OK
Track 3
Filename C:\! UPLOAD\Jimmy Lyons Quintet - Give It Up (1985) [FLAC] {Black Saint}\03 - Never.wav
Pre-gap length 0:00:02.65
Peak level 96.7 %
Extraction speed 3.5 X
Track quality 100.0 %
Test CRC 4677EE82
Copy CRC 4677EE82
Accurately ripped (confidence 3) [DBF6ADCE] (AR v1)
Copy OK
Track 4
Filename C:\! UPLOAD\Jimmy Lyons Quintet - Give It Up (1985) [FLAC] {Black Saint}\04 - Ballada.wav
Pre-gap length 0:00:03.20
Peak level 80.7 %
Extraction speed 2.9 X
Track quality 100.0 %
Test CRC 669BEAA5
Copy CRC 669BEAA5
Accurately ripped (confidence 3) [FE70171F] (AR v1)
Copy OK
All tracks accurately ripped
No errors occurred
End of status report
==== Log checksum FB33632E954156E70C4BF5BE4529EF6DAC04DF4AA09FE91F2E71183BBD9094ED ====
 
Содержание индексной карты (.CUE)
REM GENRE Jazz
REM DATE 1985
REM DISCID 2E0A6D04
REM COMMENT "ExactAudioCopy v1.0b2"
CATALOG 0000000000000
PERFORMER "Jimmy Lyons Quintet"
TITLE "Give It Up"
FILE "01 - Give It Up.wav" WAVE
TRACK 01 AUDIO
TITLE "Give It Up"
PERFORMER "Jimmy Lyons Quintet"
FLAGS PRE
PREGAP 00:00:33
INDEX 01 00:00:00
TRACK 02 AUDIO
TITLE "Methods"
PERFORMER "Jimmy Lyons Quintet"
FLAGS PRE
INDEX 00 10:16:37
FILE "02 - Methods.wav" WAVE
INDEX 01 00:00:00
TRACK 03 AUDIO
TITLE "Never"
PERFORMER "Jimmy Lyons Quintet"
FLAGS PRE
INDEX 00 11:09:65
FILE "03 - Never.wav" WAVE
INDEX 01 00:00:00
TRACK 04 AUDIO
TITLE "Ballada"
PERFORMER "Jimmy Lyons Quintet"
FLAGS PRE
INDEX 00 19:19:50
FILE "04 - Ballada.wav" WAVE
INDEX 01 00:00:00
Доп. информация:
Recorded March 6 and 7, 1985 at Barigozzi Studio, Milano
 
Об исполнителе
Jimmy Lyons (December 1, 1931 - May 19, 1986) was an alto saxophone player best known for his long tenure in the Cecil Taylor Unit, where he began playing in 1961 and continued for the remaider of his career. Lyons work independent of Taylor, documented in a recently released 5 cd box set, is underrecognized. Through the 70s and 80s he maintained his own band, playing loft and club gigs in New York City.
 
Состав
Jimmy Lyons - alto saxophone
Enrico Rava - trumpet, flugelhorn
Karen Borca - bassoon
Jay Oliver - bass
Paul Murphy - drums
Any questions -> support@pro-jazz.com. По всем вопросам пишите -> support@pro-jazz.com
20:37
186
Нет комментариев. Ваш будет первым!