Вы используете незарегистрированную версию компонента "Вкладки"!

Поиск

(Avant-Garde Jazz, Free Improvisation, pfMENTUM) [CD] Scott Fraser & Bruce Friedman - Landscape With Figure - 2005, FLAC (tracks+.cue), lossless

(Avant-Garde Jazz, Free Improvisation, pfMENTUM) [CD] Scott Fraser & Bruce Friedman - Landscape With Figure - 2005, FLAC (tracks+.cue), lossless
Треклист:
Scott Fraser & Bruce Friedman / Landscape With Figure
Жанр: Avant-Garde Jazz, Free Improvisation, pfMENTUM
Носитель: CD
Страна-производитель диска: US
Год издания: 2005
Издатель (лейбл): pfMENTUM
Номер по каталогу: PFMCD031
Страна: US
Аудиокодек: FLAC (*.flac)
Тип рипа: tracks+.cue
Битрейт аудио: lossless
Продолжительность: 63:15
Источник (релизер): свой фирменный диск
Наличие сканов в содержимом раздачи:
Треклист:
1. As Visible Wind 3:32
2. Haste & Intent 2:26
3. Traces 6:07
4. Plumeria 8:13
5. Field With Sticks 8:10
6. The Cartographer's Dilemma 6:01
7. Toolsville 6:45
8. L'Ombre Dans L'Eau 14:50
9. Furtive Gestures In The Silent Dark 5:09
 
Лог создания рипа
Exact Audio Copy V1.0 beta 3 from 29. August 2011
EAC extraction logfile from 25. December 2013, 22:04
Scott Fraser & Bruce Friedman / Landscape With Figure
Used drive : PIONEER DVD-RW DVR-115D Adapter: 0 ID: 0
Read mode : Secure
Utilize accurate stream : Yes
Defeat audio cache : Yes
Make use of C2 pointers : No
Read offset correction : 48
Overread into Lead-In and Lead-Out : No
Fill up missing offset samples with silence : Yes
Delete leading and trailing silent blocks : No
Null samples used in CRC calculations : Yes
Used interface : Installed external ASPI interface
Gap handling : Appended to previous track
Used output format : User Defined Encoder
Selected bitrate : 896 kBit/s
Quality : High
Add ID3 tag : No
Command line compressor : C:\Program Files\Exact Audio Copy\FLAC\FLAC.EXE
Additional command line options : -6 -V -T "ARTIST=%artist%" -T "TITLE=%title%" -T "ALBUM=%albumtitle%" -T "DATE=%year%" -T "TRACKNUMBER=%tracknr%" -T "GENRE=%genre%" -T "COMMENT=%comment%" -T "BAND=%albuminterpret%" -T "COMPOSER=%composer%" %haslyrics%--tag-from-file=LYRICS="%lyricsfile%"%haslyrics% -T "DISCNUMBER=%cdnumber%" -T "TOTALDISCS=%totalcds%" -T "TOTALTRACKS=%numtracks%" %hascover%--picture="%coverfile%"%hascover% %source% -o %dest%
TOC of the extracted CD
Track | Start | Length | Start sector | End sector
---------------------------------------------------------
1 | 0:00.00 | 3:32.44 | 0 | 15943
2 | 3:32.44 | 2:28.43 | 15944 | 27086
3 | 6:01.12 | 7:58.71 | 27087 | 63007
4 | 14:00.08 | 8:14.06 | 63008 | 100063
5 | 22:14.14 | 8:04.73 | 100064 | 136436
6 | 30:19.12 | 6:03.48 | 136437 | 163709
7 | 36:22.60 | 6:49.11 | 163710 | 194395
8 | 43:11.71 | 14:51.05 | 194396 | 261225
9 | 58:03.01 | 5:12.21 | 261226 | 284646
Track 1
Filename D:\zzz\01 - As Visible Wind.wav
Pre-gap length 0:00:02.00
Peak level 89.1 %
Extraction speed 2.5 X
Track quality 100.0 %
Test CRC 56CEB5B9
Copy CRC 56CEB5B9
Track not present in AccurateRip database
Copy OK
Track 2
Filename D:\zzz\02 - Haste & Intent.wav
Pre-gap length 0:00:01.15
Peak level 94.4 %
Extraction speed 2.5 X
Track quality 100.0 %
Test CRC 72C18152
Copy CRC 72C18152
Track not present in AccurateRip database
Copy OK
Track 3
Filename D:\zzz\03 - Traces.wav
Pre-gap length 0:00:02.00
Peak level 94.4 %
Extraction speed 3.2 X
Track quality 100.0 %
Test CRC A0382F79
Copy CRC A0382F79
Track not present in AccurateRip database
Copy OK
Track 4
Filename D:\zzz\04 - Plumeria.wav
Peak level 89.1 %
Extraction speed 3.7 X
Track quality 100.0 %
Test CRC 154209C7
Copy CRC 154209C7
Track not present in AccurateRip database
Copy OK
Track 5
Filename D:\zzz\05 - Field With Sticks.wav
Peak level 94.4 %
Extraction speed 4.1 X
Track quality 100.0 %
Test CRC BA47F4C5
Copy CRC BA47F4C5
Track not present in AccurateRip database
Copy OK
Track 6
Filename D:\zzz\06 - The Cartographer's Dilemma.wav
Peak level 94.4 %
Extraction speed 4.3 X
Track quality 100.0 %
Test CRC 068B2E6C
Copy CRC 068B2E6C
Track not present in AccurateRip database
Copy OK
Track 7
Filename D:\zzz\07 - Toolsville.wav
Pre-gap length 0:00:02.00
Peak level 84.1 %
Extraction speed 4.6 X
Track quality 100.0 %
Test CRC 67EBADCE
Copy CRC 67EBADCE
Track not present in AccurateRip database
Copy OK
Track 8
Filename D:\zzz\08 - L'Ombre Dans L'Eau.wav
Pre-gap length 0:00:04.00
Peak level 94.4 %
Extraction speed 5.0 X
Track quality 99.9 %
Test CRC 496CC93C
Copy CRC 496CC93C
Track not present in AccurateRip database
Copy OK
Track 9
Filename D:\zzz\09 - Furtive Gestures In The Silent Dark.wav
Pre-gap length 0:00:01.00
Peak level 91.2 %
Extraction speed 5.2 X
Track quality 100.0 %
Test CRC 22E5E30F
Copy CRC 22E5E30F
Track not present in AccurateRip database
Copy OK
None of the tracks are present in the AccurateRip database
No errors occurred
End of status report
==== Log checksum 8928E98E3BF3470051B4E1940F88768BF9DD54D746A0508A083DC564550B57E2 ====
 
Содержание индексной карты (.CUE)
REM GENRE "Free Improvisation"
REM DATE 2005
REM DISCID 720ED309
REM COMMENT "ExactAudioCopy v1.0b3"
PERFORMER "Scott Fraser & Bruce Friedman"
TITLE "Landscape With Figure"
FILE "01 - As Visible Wind.wav" WAVE
TRACK 01 AUDIO
TITLE "As Visible Wind"
PERFORMER "Scott Fraser & Bruce Friedman"
INDEX 01 00:00:00
TRACK 02 AUDIO
TITLE "Haste & Intent"
PERFORMER "Scott Fraser & Bruce Friedman"
INDEX 00 03:31:29
FILE "02 - Haste & Intent.wav" WAVE
INDEX 01 00:00:00
TRACK 03 AUDIO
TITLE "Traces"
PERFORMER "Scott Fraser & Bruce Friedman"
INDEX 00 02:26:43
FILE "03 - Traces.wav" WAVE
INDEX 01 00:00:00
FILE "04 - Plumeria.wav" WAVE
TRACK 04 AUDIO
TITLE "Plumeria"
PERFORMER "Scott Fraser & Bruce Friedman"
INDEX 01 00:00:00
FILE "05 - Field With Sticks.wav" WAVE
TRACK 05 AUDIO
TITLE "Field With Sticks"
PERFORMER "Scott Fraser & Bruce Friedman"
INDEX 01 00:00:00
FILE "06 - The Cartographer's Dilemma.wav" WAVE
TRACK 06 AUDIO
TITLE "The Cartographer's Dilemma"
PERFORMER "Scott Fraser & Bruce Friedman"
INDEX 01 00:00:00
TRACK 07 AUDIO
TITLE "Toolsville"
PERFORMER "Scott Fraser & Bruce Friedman"
INDEX 00 06:01:48
FILE "07 - Toolsville.wav" WAVE
INDEX 01 00:00:00
TRACK 08 AUDIO
TITLE "L'Ombre Dans L'Eau"
PERFORMER "Scott Fraser & Bruce Friedman"
INDEX 00 06:45:11
FILE "08 - L'Ombre Dans L'Eau.wav" WAVE
INDEX 01 00:00:00
TRACK 09 AUDIO
TITLE "Furtive Gestures In The Silent Dark"
PERFORMER "Scott Fraser & Bruce Friedman"
INDEX 00 14:50:05
FILE "09 - Furtive Gestures In The Silent Dark.wav" WAVE
INDEX 01 00:00:00
 
Лог проверки качества
d:\>d:\aucdtect -d/-m0 d:\zzz\*.wav
auCDtect: CD records authenticity detector, version 0.8.2
Copyright (c) 2004 Oleg Berngardt. All rights reserved.
Copyright (c) 2004 Alexander Djourik. All rights reserved.
------------------------------------------------------------
Processing file: [01. As Visible Wind.wav]
------------------------------------------------------------
This track looks like CDDA with probability 92%
------------------------------------------------------------
Processing file: [02. Haste & Intent.wav]
------------------------------------------------------------
This track looks like CDDA with probability 100%
------------------------------------------------------------
Processing file: [03. Traces.wav]
------------------------------------------------------------
This track looks like MPEG with probability 100%
------------------------------------------------------------
Processing file: [04. Plumeria.wav]
------------------------------------------------------------
This track looks like CDDA with probability 100%
------------------------------------------------------------
Processing file: [05. Field With Sticks.wav]
------------------------------------------------------------
This track looks like CDDA with probability 43%
------------------------------------------------------------
Processing file: [06. The Cartographer's Dilemma.wav]
------------------------------------------------------------
This track looks like CDDA with probability 100%
------------------------------------------------------------
Processing file: [07. Toolsville.wav]
------------------------------------------------------------
This track looks like CDDA with probability 100%
------------------------------------------------------------
Processing file: [08. L'Ombre Dans L'Eau.wav]
------------------------------------------------------------
This track looks like CDDA with probability 100%
------------------------------------------------------------
Processing file: [09. Furtive Gestures In The Silent Dark.wav]
------------------------------------------------------------
This track looks like MPEG with probability 90%
------------------------------------------------------------
Final Conclusion:
------------------------------------------------------------
Could not qualify the source of these tracks.
Доп. информация:
 
Album Info & AMG Review
All pieces by Scott Fraser & Bruce Friedman
Recorded, mixed & mastered at Architecture, Los Angeles
Produced by Scott Fraser & Bruce Friedman
Cover: untitled (3/8/99) watercolor (C)1999 Cody A. Bustamante
Inside: detail, untitled (merman, 1994) water media (C)1994 Cody A. Bustamante
Design & Layout by Jeremy Drake, evvt.com
A crossover between adult contemporary and classical categories, Landscape with Figure (2005) may be described more accurately and helpfully as a kind of electro-acoustic/ambient improvisation that draws on a number of fusion jazz and avant-garde sounds for its most successful effects. Despite the seemingly spare resources of Scott Fraser's electric guitar and Bruce Friedman's trumpet, the duo's timbral palette is rather broad and becomes more varied as the piece progresses. Furthermore, the music starts out simply, but passes through a number of complications that support the illusion of a large ensemble or even a bank of synthesizers. The detached, forlorn trumpet lines have some of the dryness of a Miles Davis solo, though without the associated feeling of mystery, since Friedman's playing is too closely miked and always in the center of things. Fraser's soft backgrounds of sustained added-note chords, wispy melodic fragments, and fluttering guitar effects are complementary to Friedman's austere part, though much of the time the static harmonies and sheets of sound change too slowly to maintain interest. That said, much of Landscape with Figure is effective as "chill-out" background music and quite enjoyable, though Haste & Intent, Field with Sticks, and The Cartographer's Dilemma are fairly pointillistic, twittering, and edgy; and the ominous Toolsville goes furthest in exploiting the potential of Fraser's reverb spring units and dissonant sonic layers. Some may choose to program their CD players for the mellow tracks only, but listen to the whole album to appreciate the full range of its haunting sonorities and darkling moods.
 
Состав
Scott Fraser: electric guitar, reverb springs on 7
Bruce Friedman: trumpet
По всем вопросам пишите личное сообщение пользователю M0p94ok.
21:52
147
Нет комментариев. Ваш будет первым!