Вы используете незарегистрированную версию компонента "Вкладки"!

Поиск

(Avant-Garde Jazz, Big Band, Innova) [CD] Darrell Katz - The Death Of Simone Weil - 2002, FLAC (tracks+.cue), lossless

(Avant-Garde Jazz, Big Band, Innova) [CD] Darrell Katz - The Death Of Simone Weil - 2002, FLAC (tracks+.cue), lossless
Треклист:
Darrell Katz / The Death Of Simone Weil
Жанр: Avant-Garde Jazz, Big Band, Innova
Носитель: CD
Страна-производитель диска: US
Год издания: 2002
Издатель (лейбл): Innova
Номер по каталогу: Innova 582
Страна: US
Аудиокодек: FLAC (*.flac)
Тип рипа: tracks+.cue
Битрейт аудио: lossless
Продолжительность: 72:03
Источник (релизер): свой фирменный диск
Наличие сканов в содержимом раздачи:
Треклист:
The Death Of Simone Weil
1. I Gone Now 7:50
2. II Renault 12:42
3. III November 1938 12:12
4. IV Saint Julien 13:58
5. V X-Ray Dreams 10:34
6. VI Almost Paradise 7:52
7. Like A Wind 6:51
 
Лог создания рипа
Exact Audio Copy V1.0 beta 3 from 29. August 2011
EAC extraction logfile from 25. December 2013, 19:42
Darrell Katz / The Death Of Simone Weil
Used drive : PIONEER DVD-RW DVR-115D Adapter: 0 ID: 0
Read mode : Secure
Utilize accurate stream : Yes
Defeat audio cache : Yes
Make use of C2 pointers : No
Read offset correction : 48
Overread into Lead-In and Lead-Out : No
Fill up missing offset samples with silence : Yes
Delete leading and trailing silent blocks : No
Null samples used in CRC calculations : Yes
Used interface : Installed external ASPI interface
Gap handling : Appended to previous track
Used output format : User Defined Encoder
Selected bitrate : 896 kBit/s
Quality : High
Add ID3 tag : No
Command line compressor : C:\Program Files\Exact Audio Copy\FLAC\FLAC.EXE
Additional command line options : -6 -V -T "ARTIST=%artist%" -T "TITLE=%title%" -T "ALBUM=%albumtitle%" -T "DATE=%year%" -T "TRACKNUMBER=%tracknr%" -T "GENRE=%genre%" -T "COMMENT=%comment%" -T "BAND=%albuminterpret%" -T "COMPOSER=%composer%" %haslyrics%--tag-from-file=LYRICS="%lyricsfile%"%haslyrics% -T "DISCNUMBER=%cdnumber%" -T "TOTALDISCS=%totalcds%" -T "TOTALTRACKS=%numtracks%" %hascover%--picture="%coverfile%"%hascover% %source% -o %dest%
TOC of the extracted CD
Track | Start | Length | Start sector | End sector
---------------------------------------------------------
1 | 0:00.00 | 7:50.40 | 0 | 35289
2 | 7:50.40 | 12:42.70 | 35290 | 92509
3 | 20:33.35 | 12:12.22 | 92510 | 147431
4 | 32:45.57 | 13:58.45 | 147432 | 210326
5 | 46:44.27 | 10:34.58 | 210327 | 257934
6 | 57:19.10 | 7:52.52 | 257935 | 293386
7 | 65:11.62 | 6:51.18 | 293387 | 324229
Track 1
Filename D:\zzz\01 - The Death Of Simone Weil - I Gone Now.wav
Pre-gap length 0:00:02.00
Peak level 88.1 %
Extraction speed 5.3 X
Track quality 100.0 %
Test CRC 4A701682
Copy CRC 4A701682
Track not present in AccurateRip database
Copy OK
Track 2
Filename D:\zzz\02 - The Death Of Simone Weil - II Renault.wav
Peak level 88.1 %
Extraction speed 6.2 X
Track quality 99.9 %
Test CRC B629C844
Copy CRC B629C844
Track not present in AccurateRip database
Copy OK
Track 3
Filename D:\zzz\03 - The Death Of Simone Weil - III November 1938.wav
Peak level 88.1 %
Extraction speed 7.5 X
Track quality 100.0 %
Test CRC EC511B71
Copy CRC EC511B71
Track not present in AccurateRip database
Copy OK
Track 4
Filename D:\zzz\04 - The Death Of Simone Weil - IV Saint Julien.wav
Peak level 88.1 %
Extraction speed 8.1 X
Track quality 99.9 %
Test CRC 7B5F6628
Copy CRC 7B5F6628
Track not present in AccurateRip database
Copy OK
Track 5
Filename D:\zzz\05 - The Death Of Simone Weil - V X-Ray Dreams.wav
Peak level 88.1 %
Extraction speed 8.6 X
Track quality 99.9 %
Test CRC 413075A1
Copy CRC 413075A1
Track not present in AccurateRip database
Copy OK
Track 6
Filename D:\zzz\06 - The Death Of Simone Weil - VI Almost Paradise.wav
Peak level 88.1 %
Extraction speed 9.3 X
Track quality 100.0 %
Test CRC 8416EFAF
Copy CRC 8416EFAF
Track not present in AccurateRip database
Copy OK
Track 7
Filename D:\zzz\07 - Like A Wind.wav
Pre-gap length 0:00:05.25
Peak level 63.8 %
Extraction speed 9.6 X
Track quality 100.0 %
Test CRC 2F3DD12E
Copy CRC 2F3DD12E
Track not present in AccurateRip database
Copy OK
None of the tracks are present in the AccurateRip database
No errors occurred
End of status report
==== Log checksum 4302C70CC0B2EC58E3640364ED92EE9E266EA39C7DD282A76037D2DF7B99965C ====
 
Содержание индексной карты (.CUE)
REM GENRE "Big Band"
REM DATE 2002
REM DISCID 5D10E307
REM COMMENT "ExactAudioCopy v1.0b3"
PERFORMER "Darrell Katz"
TITLE "The Death Of Simone Weil"
FILE "01 - The Death Of Simone Weil - I Gone Now.wav" WAVE
TRACK 01 AUDIO
TITLE "The Death Of Simone Weil - I Gone Now"
PERFORMER "Darrell Katz"
INDEX 01 00:00:00
FILE "02 - The Death Of Simone Weil - II Renault.wav" WAVE
TRACK 02 AUDIO
TITLE "The Death Of Simone Weil - II Renault"
PERFORMER "Darrell Katz"
INDEX 01 00:00:00
FILE "03 - The Death Of Simone Weil - III November 1938.wav" WAVE
TRACK 03 AUDIO
TITLE "The Death Of Simone Weil - III November 1938"
PERFORMER "Darrell Katz"
INDEX 01 00:00:00
FILE "04 - The Death Of Simone Weil - IV Saint Julien.wav" WAVE
TRACK 04 AUDIO
TITLE "The Death Of Simone Weil - IV Saint Julien"
PERFORMER "Darrell Katz"
INDEX 01 00:00:00
FILE "05 - The Death Of Simone Weil - V X-Ray Dreams.wav" WAVE
TRACK 05 AUDIO
TITLE "The Death Of Simone Weil - V X-Ray Dreams"
PERFORMER "Darrell Katz"
INDEX 01 00:00:00
FILE "06 - The Death Of Simone Weil - VI Almost Paradise.wav" WAVE
TRACK 06 AUDIO
TITLE "The Death Of Simone Weil - VI Almost Paradise"
PERFORMER "Darrell Katz"
INDEX 01 00:00:00
TRACK 07 AUDIO
TITLE "Like A Wind"
PERFORMER "Darrell Katz"
INDEX 00 07:47:27
FILE "07 - Like A Wind.wav" WAVE
INDEX 01 00:00:00
 
Лог проверки качества
d:\>d:\aucdtect -d/-m0 d:\zzz\*.wav
auCDtect: CD records authenticity detector, version 0.8.2
Copyright (c) 2004 Oleg Berngardt. All rights reserved.
Copyright (c) 2004 Alexander Djourik. All rights reserved.
------------------------------------------------------------
Processing file: [01. The Death Of Simone Weil - I Gone Now.wav]
------------------------------------------------------------
This track looks like CDDA with probability 100%
------------------------------------------------------------
Processing file: [02. The Death Of Simone Weil - II Renault.wav]
------------------------------------------------------------
This track looks like CDDA with probability 100%
------------------------------------------------------------
Processing file: [03. The Death Of Simone Weil - III November 1938.wav]
------------------------------------------------------------
This track looks like CDDA with probability 100%
------------------------------------------------------------
Processing file: [04. The Death Of Simone Weil - IV Saint Julien.wav]
------------------------------------------------------------
This track looks like CDDA with probability 100%
------------------------------------------------------------
Processing file: [05. The Death Of Simone Weil - V X-Ray Dreams.wav]
------------------------------------------------------------
This track looks like CDDA with probability 100%
------------------------------------------------------------
Processing file: [06. The Death Of Simone Weil - VI Almost Paradise.wav]
------------------------------------------------------------
This track looks like CDDA with probability 100%
------------------------------------------------------------
Processing file: [07. Like A Wind.wav]
------------------------------------------------------------
This track looks like CDDA with probability 42%
------------------------------------------------------------
Final Conclusion:
------------------------------------------------------------
These tracks looks like CDDA with probability 100%
Доп. информация:
 
Album Info & AMG Review
Music by Darrell Katz, text by Paula Tatarunis (1-6), Sherwood Anderson (from the novel, "Winesburg, Ohio") (7)
Produced by Darrell Katz
Tracks 1-6 recorded at Berklee Performance Center by Berklee Recording Studios, October 6, 2001. Recorded using Studio D.
Recording engineer: Hun Min Park
Assistant engineer: Greg Galindo
Front of House engineer: Brad Berger
Track 7 recorded at Thin Ice Productions by Bob Patton June 8, 2002.
Mixing and editing by Bob Patton of Thin Ice Productions.
Photograph of Rebecca Shrimpton and Darrell Katz by Jeffrey Shrimpton
Photographs of Dresden after fire bombing in World War II, courtesy of The Library of Congress: Prints and Photographs Division
Liner notes: Ed Hazel, Paula Tatarunis
In music, having the best of intentions doesn't always pay off creatively. There are many ambitious, well-meaning projects that simply don't work out; the pieces fail to come together, and the end result can be awkward or embarrassing. But that isn't a problem for Darrell Katz on this risk-taking, mildly avant-garde CD, which finds the Boston-based composer/arranger joining forces with singer Rebecca Shrimpton and the Jazz Composers Alliance Orchestra. The idea was to set poet Paula Tatarunis' The Death of Simone Weil (a reflection on the life and death of French philosopher Simone Weil) to music -- specifically, to Katz's own melodies. Shrimpton could have simply recited the text of Tatarunis, who is married to Katz -- that would have been an easier way to do things, but instead, she sings Tatarunis' words. And that's a positive thing, because her performances are quite compelling; stylistically, Shrimpton's contributions to this disc (which was recorded in 2001 and 2002) bring to mind Judi Silvano, Ann Dyer, and Kitty Brazelton (three of the more imaginative vocalists of the '90s and 2000s). Favoring an inside/outside approach, this CD underscores the fact that not all avant-garde jazz is atonal screaming; actually, the disc is quite musical -- abstract, cerebral, and left-of-center, certainly, but definitely musical. Of course, a project as esoteric and arcane as this one could have become overly self-indulgent if the participants weren't careful, but all of the pieces fit together nicely -- Tatarunis' words, Katz' melodies and arrangements, the orchestra's musicianship, and Shrimpton's expressive vocals make for an attractive, successful combination. Katz can take pride in the fact that this excellent CD is as thoughtful as it is adventurous.
 
Состав
The Jazz Composers Alliance Orchestra (1-6)
Voice: Rebecca Shrimpton
Flute: Hiro Honshuke
Alto sax: Matt Steckler, Jeremy Udden
Tenor sax: Phil Scarff
Baritone sax: Hans Indigo
Trumpets: Keiichi Hashimoto, Mike Peipman
French horn: Dirk Hillyer
Trombones: David Harris, Bob Pilkington
Tuba: Jim Gray
Piano: Art Bailey
Vibraphone: Rich Greenblatt
Percussion: Taki Masuko
Bass: Rick McLaughlin
Drums: Harvey Wirht
Guitar: Norm Zocher
Guest vocalists: Warren Senders (4), Al Tatarunis (2)
Abby and Norm Group w/ Rebecca Shrimpton (7)
Voice: Rebecca Shrimpton
Guitar: Norm Zocher
Quantum guitarbass: Abby Aronson
Any questions -> support@pro-jazz.com. По всем вопросам пишите -> support@pro-jazz.com
21:51
141
Нет комментариев. Ваш будет первым!