Поиск

(Avant-Garde, Electroacoustic, Free Improvisation) [CD] Lx Rudis, Andre Custodio, Ernesto Diaz-Infante - Crashing The Russian Renaissance - 2002, FLAC (tracks+.cue), lossless

(Avant-Garde, Electroacoustic, Free Improvisation) [CD] Lx Rudis, Andre Custodio, Ernesto Diaz-Infante - Crashing The Russian Renaissance - 2002, FLAC (tracks+.cue), lossless
Треклист:
Lx Rudis, Andre Custodio, Ernesto Diaz-Infante / Crashing The Russian Renaissance
Жанр: Avant-Garde, Electroacoustic, Free Improvisation
Носитель: CD
Страна-производитель диска: US
Год издания: 2002
Издатель (лейбл): Pax Recordings
Номер по каталогу: PR90253
Страна: US
Аудиокодек: FLAC (*.flac)
Тип рипа: tracks+.cue
Битрейт аудио: lossless
Продолжительность: 61:02
Источник (релизер): свой фирменный диск
Наличие сканов в содержимом раздачи:
Треклист:
"Three College Radio-Ready Edits"
1. 01 4:40
2. 02 3:55
3. 03 5:14
"Overthruster"
4. 04 4:05
5. 05 5:59
6. 06 0:34
7. 07 3:17
8. 08 0:52
9. 09 2:20
10. 10 0:56
11. 11 2:51
12. 12 1:43
13. 13 1:42
14. 14 2:00
15. 15 0:41
16. 16 0:41
17. 17 0:41
18. 18 1:03
19. 19 1:20
20. 20 0:35
21. 21 1:08
22. 22 0:29
23. 23 3:01
24. 24 1:57
25. 25 0:23
26. 26 0:26
27. 27 1:55
28. 28 0:03
29. 29 0:03
30. 30 3:03
 
Лог создания рипа
Exact Audio Copy V1.0 beta 3 from 29. August 2011
EAC extraction logfile from 24. December 2013, 23:50
Lx Rudis, Andre Custodio, Ernesto Diaz-Infante / Crashing The Russian Renaissance
Used drive : PIONEER DVD-RW DVR-115D Adapter: 0 ID: 0
Read mode : Secure
Utilize accurate stream : Yes
Defeat audio cache : Yes
Make use of C2 pointers : No
Read offset correction : 48
Overread into Lead-In and Lead-Out : No
Fill up missing offset samples with silence : Yes
Delete leading and trailing silent blocks : No
Null samples used in CRC calculations : Yes
Used interface : Installed external ASPI interface
Gap handling : Appended to previous track
Used output format : User Defined Encoder
Selected bitrate : 896 kBit/s
Quality : High
Add ID3 tag : No
Command line compressor : C:\Program Files\Exact Audio Copy\FLAC\FLAC.EXE
Additional command line options : -6 -V -T "ARTIST=%artist%" -T "TITLE=%title%" -T "ALBUM=%albumtitle%" -T "DATE=%year%" -T "TRACKNUMBER=%tracknr%" -T "GENRE=%genre%" -T "COMMENT=%comment%" -T "BAND=%albuminterpret%" -T "COMPOSER=%composer%" %haslyrics%--tag-from-file=LYRICS="%lyricsfile%"%haslyrics% -T "DISCNUMBER=%cdnumber%" -T "TOTALDISCS=%totalcds%" -T "TOTALTRACKS=%numtracks%" %hascover%--picture="%coverfile%"%hascover% %source% -o %dest%
TOC of the extracted CD
Track | Start | Length | Start sector | End sector
---------------------------------------------------------
1 | 0:00.00 | 4:40.46 | 0 | 21045
2 | 4:40.46 | 3:54.70 | 21046 | 38665
3 | 8:35.41 | 5:17.31 | 38666 | 62471
4 | 13:52.72 | 4:05.33 | 62472 | 80879
5 | 17:58.30 | 5:56.37 | 80880 | 107616
6 | 23:54.67 | 0:36.47 | 107617 | 110363
7 | 24:31.39 | 3:16.39 | 110364 | 125102
8 | 27:48.03 | 0:51.41 | 125103 | 128968
9 | 28:39.44 | 2:20.34 | 128969 | 139502
10 | 31:00.03 | 0:55.42 | 139503 | 143669
11 | 31:55.45 | 2:52.07 | 143670 | 156576
12 | 34:47.52 | 1:43.09 | 156577 | 164310
13 | 36:30.61 | 1:41.40 | 164311 | 171925
14 | 38:12.26 | 1:59.37 | 171926 | 180887
15 | 40:11.63 | 1:41.08 | 180888 | 188470
16 | 41:52.71 | 0:41.33 | 188471 | 191578
17 | 42:34.29 | 1:02.61 | 191579 | 196289
18 | 43:37.15 | 1:40.35 | 196290 | 203824
19 | 45:17.50 | 1:41.32 | 203825 | 211431
20 | 46:59.07 | 0:34.37 | 211432 | 214018
21 | 47:33.44 | 1:08.29 | 214019 | 219147
22 | 48:41.73 | 0:29.06 | 219148 | 221328
23 | 49:11.04 | 3:01.67 | 221329 | 234970
24 | 52:12.71 | 1:55.46 | 234971 | 243641
25 | 54:08.42 | 0:22.56 | 243642 | 245347
26 | 54:31.23 | 0:27.16 | 245348 | 247388
27 | 54:58.39 | 1:53.51 | 247389 | 255914
28 | 56:52.15 | 0:04.00 | 255915 | 256214
29 | 56:56.15 | 3:00.63 | 256215 | 269777
30 | 59:57.03 | 1:05.18 | 269778 | 274670
Track 1
Filename D:\zzz\01 - Three College Radio-Ready Edits Part 1.wav
Pre-gap length 0:00:02.00
Peak level 96.5 %
Extraction speed 4.4 X
Track quality 100.0 %
Test CRC A31B3300
Copy CRC A31B3300
Accurately ripped (confidence 1) [F1B1701C] (AR v1)
Copy OK
Track 2
Filename D:\zzz\02 - Three College Radio-Ready Edits Part 2.wav
Peak level 96.5 %
Extraction speed 4.7 X
Track quality 100.0 %
Test CRC 1C7A0409
Copy CRC 1C7A0409
Accurately ripped (confidence 1) [A92C56A6] (AR v1)
Copy OK
Track 3
Filename D:\zzz\03 - Three College Radio-Ready Edits Part 3.wav
Peak level 96.5 %
Extraction speed 4.9 X
Track quality 99.9 %
Test CRC 903AC2EB
Copy CRC 903AC2EB
Accurately ripped (confidence 1) [03C3D2CB] (AR v1)
Copy OK
Track 4
Filename D:\zzz\04 - Overthruster Part 1.wav
Pre-gap length 0:00:03.00
Peak level 96.5 %
Extraction speed 5.6 X
Track quality 100.0 %
Test CRC 4264220B
Copy CRC 4264220B
Accurately ripped (confidence 1) [3838ED08] (AR v1)
Copy OK
Track 5
Filename D:\zzz\05 - Overthruster Part 2.wav
Peak level 96.5 %
Extraction speed 6.3 X
Track quality 100.0 %
Test CRC 5EC3C217
Copy CRC 5EC3C217
Accurately ripped (confidence 1) [7BC7CEEA] (AR v1)
Copy OK
Track 6
Filename D:\zzz\06 - Overthruster Part 3.wav
Peak level 83.8 %
Extraction speed 3.5 X
Track quality 100.0 %
Test CRC 29ACF77F
Copy CRC 29ACF77F
Accurately ripped (confidence 1) [D9A641F0] (AR v1)
Copy OK
Track 7
Filename D:\zzz\07 - Overthruster Part 4.wav
Peak level 96.5 %
Extraction speed 5.3 X
Track quality 99.9 %
Test CRC A8D83C03
Copy CRC A8D83C03
Accurately ripped (confidence 1) [9B200B7B] (AR v1)
Copy OK
Track 8
Filename D:\zzz\08 - Overthruster Part 5.wav
Peak level 96.5 %
Extraction speed 4.4 X
Track quality 100.0 %
Test CRC 0099F70B
Copy CRC 0099F70B
Accurately ripped (confidence 1) [DE967A9C] (AR v1)
Copy OK
Track 9
Filename D:\zzz\09 - Overthruster Part 6.wav
Peak level 93.9 %
Extraction speed 5.9 X
Track quality 100.0 %
Test CRC 1040F325
Copy CRC 1040F325
Accurately ripped (confidence 1) [C421F700] (AR v1)
Copy OK
Track 10
Filename D:\zzz\10 - Overthruster Part 7.wav
Peak level 96.5 %
Extraction speed 4.6 X
Track quality 100.0 %
Test CRC DBAA2CB4
Copy CRC DBAA2CB4
Accurately ripped (confidence 1) [8BE13CE1] (AR v1)
Copy OK
Track 11
Filename D:\zzz\11 - Overthruster Part 8.wav
Peak level 96.5 %
Extraction speed 6.5 X
Track quality 100.0 %
Test CRC DC15AF24
Copy CRC DC15AF24
Accurately ripped (confidence 1) [575C690A] (AR v1)
Copy OK
Track 12
Filename D:\zzz\12 - Overthruster Part 9.wav
Peak level 96.5 %
Extraction speed 5.9 X
Track quality 100.0 %
Test CRC 13CEE85A
Copy CRC 13CEE85A
Accurately ripped (confidence 1) [ED093A25] (AR v1)
Copy OK
Track 13
Filename D:\zzz\13 - Overthruster Part 10.wav
Peak level 96.5 %
Extraction speed 5.9 X
Track quality 100.0 %
Test CRC 60064E66
Copy CRC 60064E66
Accurately ripped (confidence 1) [934D97E0] (AR v1)
Copy OK
Track 14
Filename D:\zzz\14 - Overthruster Part 11.wav
Peak level 96.3 %
Extraction speed 5.2 X
Track quality 99.9 %
Test CRC FDFB6971
Copy CRC FDFB6971
Accurately ripped (confidence 1) [5B61E0D3] (AR v1)
Copy OK
Track 15
Filename D:\zzz\15 - Overthruster Part 12.wav
Peak level 86.9 %
Extraction speed 6.0 X
Track quality 100.0 %
Test CRC CCF661E2
Copy CRC CCF661E2
Accurately ripped (confidence 1) [1B8D8002] (AR v1)
Copy OK
Track 16
Filename D:\zzz\16 - Overthruster Part 13.wav
Peak level 73.6 %
Extraction speed 4.4 X
Track quality 100.0 %
Test CRC A493E1C2
Copy CRC A493E1C2
Accurately ripped (confidence 1) [1745D134] (AR v1)
Copy OK
Track 17
Filename D:\zzz\17 - Overthruster Part 14.wav
Peak level 88.3 %
Extraction speed 5.3 X
Track quality 100.0 %
Test CRC FA7D4D70
Copy CRC FA7D4D70
Accurately ripped (confidence 1) [9FA1FCB1] (AR v1)
Copy OK
Track 18
Filename D:\zzz\18 - Overthruster Part 15.wav
Peak level 59.3 %
Extraction speed 6.2 X
Track quality 100.0 %
Test CRC 699DF830
Copy CRC 699DF830
Accurately ripped (confidence 1) [9829C356] (AR v1)
Copy OK
Track 19
Filename D:\zzz\19 - Overthruster Part 16.wav
Peak level 96.5 %
Extraction speed 6.4 X
Track quality 100.0 %
Test CRC A1F22ED4
Copy CRC A1F22ED4
Accurately ripped (confidence 1) [2D68EE2E] (AR v1)
Copy OK
Track 20
Filename D:\zzz\20 - Overthruster Part 17.wav
Peak level 95.9 %
Extraction speed 2.8 X
Track quality 99.6 %
Test CRC 903A23F0
Copy CRC 903A23F0
Accurately ripped (confidence 1) [3C68003C] (AR v1)
Copy OK
Track 21
Filename D:\zzz\21 - Overthruster Part 18.wav
Peak level 78.0 %
Extraction speed 4.2 X
Track quality 99.8 %
Test CRC 39B4A0BD
Copy CRC 39B4A0BD
Accurately ripped (confidence 1) [01A0647F] (AR v1)
Copy OK
Track 22
Filename D:\zzz\22 - Overthruster Part 19.wav
Peak level 96.5 %
Extraction speed 3.8 X
Track quality 100.0 %
Test CRC 0F8346F7
Copy CRC 0F8346F7
Accurately ripped (confidence 1) [34BDB9F0] (AR v1)
Copy OK
Track 23
Filename D:\zzz\23 - Overthruster Part 20.wav
Peak level 96.5 %
Extraction speed 6.4 X
Track quality 99.9 %
Test CRC D25C2EF4
Copy CRC D25C2EF4
Accurately ripped (confidence 1) [B0207530] (AR v1)
Copy OK
Track 24
Filename D:\zzz\24 - Overthruster Part 21.wav
Peak level 96.5 %
Extraction speed 6.9 X
Track quality 100.0 %
Test CRC 86992690
Copy CRC 86992690
Accurately ripped (confidence 1) [76E60CCA] (AR v1)
Copy OK
Track 25
Filename D:\zzz\25 - Overthruster Part 22.wav
Peak level 68.5 %
Extraction speed 3.4 X
Track quality 100.0 %
Test CRC 1F2CC4ED
Copy CRC 1F2CC4ED
Accurately ripped (confidence 1) [FC26F904] (AR v1)
Copy OK
Track 26
Filename D:\zzz\26 - Overthruster Part 23.wav
Peak level 71.6 %
Extraction speed 2.5 X
Track quality 99.6 %
Test CRC FECE34A4
Copy CRC FECE34A4
Accurately ripped (confidence 1) [44EF08CC] (AR v1)
Copy OK
Track 27
Filename D:\zzz\27 - Overthruster Part 24.wav
Peak level 96.5 %
Extraction speed 6.9 X
Track quality 100.0 %
Test CRC 5C8D1D53
Copy CRC 5C8D1D53
Accurately ripped (confidence 1) [CF2A7B19] (AR v1)
Copy OK
Track 28
Filename D:\zzz\28 - Overthruster Part 25.wav
Peak level 81.6 %
Extraction speed 0.4 X
Track quality 97.2 %
Test CRC 1657B410
Copy CRC 1657B410
Track not present in AccurateRip database
Copy OK
Track 29
Filename D:\zzz\29 - Overthruster Part 26.wav
Peak level 96.5 %
Extraction speed 7.8 X
Track quality 100.0 %
Test CRC 3D8662BB
Copy CRC 3D8662BB
Accurately ripped (confidence 1) [391A731B] (AR v1)
Copy OK
Track 30
Filename D:\zzz\30 - Overthruster Part 27.wav
Peak level 72.4 %
Extraction speed 6.1 X
Track quality 100.0 %
Test CRC F843D647
Copy CRC F843D647
Accurately ripped (confidence 1) [1F96DACF] (AR v1)
Copy OK
29 track(s) accurately ripped
1 track(s) not present in the AccurateRip database
Some tracks could not be verified as accurate
No errors occurred
End of status report
==== Log checksum EA21D105AB7776F56626D834B577E7F3BBD962BB9FD28F05196172325BD6E4D7 ====
 
Содержание индексной карты (.CUE)
REM GENRE "Free Improvisation"
REM DATE 2002
REM DISCID B00E4E1E
REM COMMENT "ExactAudioCopy v1.0b3"
PERFORMER "Lx Rudis, Andre Custodio, Ernesto Diaz-Infante"
TITLE "Crashing The Russian Renaissance"
FILE "01 - Three College Radio-Ready Edits Part 1.wav" WAVE
TRACK 01 AUDIO
TITLE "Three College Radio-Ready Edits Part 1"
PERFORMER "Lx Rudis, Andre Custodio, Ernesto Diaz-Infante"
INDEX 01 00:00:00
FILE "02 - Three College Radio-Ready Edits Part 2.wav" WAVE
TRACK 02 AUDIO
TITLE "Three College Radio-Ready Edits Part 2"
PERFORMER "Lx Rudis, Andre Custodio, Ernesto Diaz-Infante"
INDEX 01 00:00:00
FILE "03 - Three College Radio-Ready Edits Part 3.wav" WAVE
TRACK 03 AUDIO
TITLE "Three College Radio-Ready Edits Part 3"
PERFORMER "Lx Rudis, Andre Custodio, Ernesto Diaz-Infante"
INDEX 01 00:00:00
TRACK 04 AUDIO
TITLE "Overthruster Part 1"
PERFORMER "Lx Rudis, Andre Custodio, Ernesto Diaz-Infante"
INDEX 00 05:14:31
FILE "04 - Overthruster Part 1.wav" WAVE
INDEX 01 00:00:00
FILE "05 - Overthruster Part 2.wav" WAVE
TRACK 05 AUDIO
TITLE "Overthruster Part 2"
PERFORMER "Lx Rudis, Andre Custodio, Ernesto Diaz-Infante"
INDEX 01 00:00:00
FILE "06 - Overthruster Part 3.wav" WAVE
TRACK 06 AUDIO
TITLE "Overthruster Part 3"
PERFORMER "Lx Rudis, Andre Custodio, Ernesto Diaz-Infante"
INDEX 01 00:00:00
FILE "07 - Overthruster Part 4.wav" WAVE
TRACK 07 AUDIO
TITLE "Overthruster Part 4"
PERFORMER "Lx Rudis, Andre Custodio, Ernesto Diaz-Infante"
INDEX 01 00:00:00
FILE "08 - Overthruster Part 5.wav" WAVE
TRACK 08 AUDIO
TITLE "Overthruster Part 5"
PERFORMER "Lx Rudis, Andre Custodio, Ernesto Diaz-Infante"
INDEX 01 00:00:00
FILE "09 - Overthruster Part 6.wav" WAVE
TRACK 09 AUDIO
TITLE "Overthruster Part 6"
PERFORMER "Lx Rudis, Andre Custodio, Ernesto Diaz-Infante"
INDEX 01 00:00:00
FILE "10 - Overthruster Part 7.wav" WAVE
TRACK 10 AUDIO
TITLE "Overthruster Part 7"
PERFORMER "Lx Rudis, Andre Custodio, Ernesto Diaz-Infante"
INDEX 01 00:00:00
FILE "11 - Overthruster Part 8.wav" WAVE
TRACK 11 AUDIO
TITLE "Overthruster Part 8"
PERFORMER "Lx Rudis, Andre Custodio, Ernesto Diaz-Infante"
INDEX 01 00:00:00
FILE "12 - Overthruster Part 9.wav" WAVE
TRACK 12 AUDIO
TITLE "Overthruster Part 9"
PERFORMER "Lx Rudis, Andre Custodio, Ernesto Diaz-Infante"
INDEX 01 00:00:00
FILE "13 - Overthruster Part 10.wav" WAVE
TRACK 13 AUDIO
TITLE "Overthruster Part 10"
PERFORMER "Lx Rudis, Andre Custodio, Ernesto Diaz-Infante"
INDEX 01 00:00:00
FILE "14 - Overthruster Part 11.wav" WAVE
TRACK 14 AUDIO
TITLE "Overthruster Part 11"
PERFORMER "Lx Rudis, Andre Custodio, Ernesto Diaz-Infante"
INDEX 01 00:00:00
FILE "15 - Overthruster Part 12.wav" WAVE
TRACK 15 AUDIO
TITLE "Overthruster Part 12"
PERFORMER "Lx Rudis, Andre Custodio, Ernesto Diaz-Infante"
INDEX 01 00:00:00
FILE "16 - Overthruster Part 13.wav" WAVE
TRACK 16 AUDIO
TITLE "Overthruster Part 13"
PERFORMER "Lx Rudis, Andre Custodio, Ernesto Diaz-Infante"
INDEX 01 00:00:00
FILE "17 - Overthruster Part 14.wav" WAVE
TRACK 17 AUDIO
TITLE "Overthruster Part 14"
PERFORMER "Lx Rudis, Andre Custodio, Ernesto Diaz-Infante"
INDEX 01 00:00:00
FILE "18 - Overthruster Part 15.wav" WAVE
TRACK 18 AUDIO
TITLE "Overthruster Part 15"
PERFORMER "Lx Rudis, Andre Custodio, Ernesto Diaz-Infante"
INDEX 01 00:00:00
FILE "19 - Overthruster Part 16.wav" WAVE
TRACK 19 AUDIO
TITLE "Overthruster Part 16"
PERFORMER "Lx Rudis, Andre Custodio, Ernesto Diaz-Infante"
INDEX 01 00:00:00
FILE "20 - Overthruster Part 17.wav" WAVE
TRACK 20 AUDIO
TITLE "Overthruster Part 17"
PERFORMER "Lx Rudis, Andre Custodio, Ernesto Diaz-Infante"
INDEX 01 00:00:00
FILE "21 - Overthruster Part 18.wav" WAVE
TRACK 21 AUDIO
TITLE "Overthruster Part 18"
PERFORMER "Lx Rudis, Andre Custodio, Ernesto Diaz-Infante"
INDEX 01 00:00:00
FILE "22 - Overthruster Part 19.wav" WAVE
TRACK 22 AUDIO
TITLE "Overthruster Part 19"
PERFORMER "Lx Rudis, Andre Custodio, Ernesto Diaz-Infante"
INDEX 01 00:00:00
FILE "23 - Overthruster Part 20.wav" WAVE
TRACK 23 AUDIO
TITLE "Overthruster Part 20"
PERFORMER "Lx Rudis, Andre Custodio, Ernesto Diaz-Infante"
INDEX 01 00:00:00
FILE "24 - Overthruster Part 21.wav" WAVE
TRACK 24 AUDIO
TITLE "Overthruster Part 21"
PERFORMER "Lx Rudis, Andre Custodio, Ernesto Diaz-Infante"
INDEX 01 00:00:00
FILE "25 - Overthruster Part 22.wav" WAVE
TRACK 25 AUDIO
TITLE "Overthruster Part 22"
PERFORMER "Lx Rudis, Andre Custodio, Ernesto Diaz-Infante"
INDEX 01 00:00:00
FILE "26 - Overthruster Part 23.wav" WAVE
TRACK 26 AUDIO
TITLE "Overthruster Part 23"
PERFORMER "Lx Rudis, Andre Custodio, Ernesto Diaz-Infante"
INDEX 01 00:00:00
FILE "27 - Overthruster Part 24.wav" WAVE
TRACK 27 AUDIO
TITLE "Overthruster Part 24"
PERFORMER "Lx Rudis, Andre Custodio, Ernesto Diaz-Infante"
INDEX 01 00:00:00
FILE "28 - Overthruster Part 25.wav" WAVE
TRACK 28 AUDIO
TITLE "Overthruster Part 25"
PERFORMER "Lx Rudis, Andre Custodio, Ernesto Diaz-Infante"
INDEX 01 00:00:00
FILE "29 - Overthruster Part 26.wav" WAVE
TRACK 29 AUDIO
TITLE "Overthruster Part 26"
PERFORMER "Lx Rudis, Andre Custodio, Ernesto Diaz-Infante"
INDEX 01 00:00:00
FILE "30 - Overthruster Part 27.wav" WAVE
TRACK 30 AUDIO
TITLE "Overthruster Part 27"
PERFORMER "Lx Rudis, Andre Custodio, Ernesto Diaz-Infante"
INDEX 01 00:00:00
 
Лог проверки качества
d:\>d:\aucdtect -d/-m0 d:\zzz\*.wav
auCDtect: CD records authenticity detector, version 0.8.2
Copyright (c) 2004 Oleg Berngardt. All rights reserved.
Copyright (c) 2004 Alexander Djourik. All rights reserved.
------------------------------------------------------------
Processing file: [01. Three College Radio-Ready Edits Part 1.wav]
------------------------------------------------------------
This track looks like CDDA with probability 100%
------------------------------------------------------------
Processing file: [02. Three College Radio-Ready Edits Part 2.wav]
------------------------------------------------------------
This track looks like CDDA with probability 100%
------------------------------------------------------------
Processing file: [03. Three College Radio-Ready Edits Part 3.wav]
------------------------------------------------------------
This track looks like CDDA with probability 100%
------------------------------------------------------------
Processing file: [04. Overthruster Part 1.wav]
------------------------------------------------------------
This track looks like CDDA with probability 100%
------------------------------------------------------------
Processing file: [05. Overthruster Part 2.wav]
------------------------------------------------------------
This track looks like CDDA with probability 100%
------------------------------------------------------------
Processing file: [06. Overthruster Part 3.wav]
------------------------------------------------------------
This track looks like CDDA with probability 100%
------------------------------------------------------------
Processing file: [07. Overthruster Part 4.wav]
------------------------------------------------------------
This track looks like CDDA with probability 100%
------------------------------------------------------------
Processing file: [08. Overthruster Part 5.wav]
------------------------------------------------------------
This track looks like CDDA with probability 100%
------------------------------------------------------------
Processing file: [09. Overthruster Part 6.wav]
------------------------------------------------------------
This track looks like CDDA with probability 100%
------------------------------------------------------------
Processing file: [10. Overthruster Part 7.wav]
------------------------------------------------------------
This track looks like CDDA with probability 100%
------------------------------------------------------------
Processing file: [11. Overthruster Part 8.wav]
------------------------------------------------------------
This track looks like CDDA with probability 100%
------------------------------------------------------------
Processing file: [12. Overthruster Part 9.wav]
------------------------------------------------------------
This track looks like CDDA with probability 100%
------------------------------------------------------------
Processing file: [13. Overthruster Part 10.wav]
------------------------------------------------------------
This track looks like CDDA with probability 100%
------------------------------------------------------------
Processing file: [14. Overthruster Part 11.wav]
------------------------------------------------------------
This track looks like CDDA with probability 100%
------------------------------------------------------------
Processing file: [15. Overthruster Part 12.wav]
------------------------------------------------------------
This track looks like CDDA with probability 100%
------------------------------------------------------------
Processing file: [16. Overthruster Part 13.wav]
------------------------------------------------------------
This track looks like CDDA with probability 100%
------------------------------------------------------------
Processing file: [17. Overthruster Part 14.wav]
------------------------------------------------------------
This track looks like CDDA with probability 100%
------------------------------------------------------------
Processing file: [18. Overthruster Part 15.wav]
------------------------------------------------------------
This track looks like CDDA with probability 94%
------------------------------------------------------------
Processing file: [19. Overthruster Part 16.wav]
------------------------------------------------------------
This track looks like CDDA with probability 86%
------------------------------------------------------------
Processing file: [20. Overthruster Part 17.wav]
------------------------------------------------------------
This track looks like CDDA with probability 100%
------------------------------------------------------------
Processing file: [21. Overthruster Part 18.wav]
------------------------------------------------------------
This track looks like CDDA with probability 99%
------------------------------------------------------------
Processing file: [22. Overthruster Part 19.wav]
------------------------------------------------------------
This track looks like CDDA with probability 42%
------------------------------------------------------------
Processing file: [23. Overthruster Part 20.wav]
------------------------------------------------------------
This track looks like CDDA with probability 100%
------------------------------------------------------------
Processing file: [24. Overthruster Part 21.wav]
------------------------------------------------------------
This track looks like CDDA with probability 100%
------------------------------------------------------------
Processing file: [25. Overthruster Part 22.wav]
------------------------------------------------------------
This track looks like CDDA with probability 100%
------------------------------------------------------------
Processing file: [26. Overthruster Part 23.wav]
------------------------------------------------------------
This track looks like MPEG with probability 100%
------------------------------------------------------------
Processing file: [27. Overthruster Part 24.wav]
------------------------------------------------------------
This track looks like CDDA with probability 43%
------------------------------------------------------------
Processing file: [28. Overthruster Part 25.wav]
------------------------------------------------------------
This track looks like CDDA with probability 100%
------------------------------------------------------------
Processing file: [29. Overthruster Part 26.wav]
------------------------------------------------------------
This track looks like CDDA with probability 86%
------------------------------------------------------------
Processing file: [30. Overthruster Part 27.wav]
------------------------------------------------------------
This track looks like CDDA with probability 100%
------------------------------------------------------------
Final Conclusion:
------------------------------------------------------------
Could not qualify the source of these tracks.
Доп. информация:
 
Album Info & AMG Review
All compositions by Lx Rudis, Andre Custodio, Ernesto Diaz-Infante
Produced by Lx Rudis and Ernesto Diaz-Infante
Recorded and engineered by Lx Rudis and Andre Custodio, San Francisco, CA
Mixed by Lx Rudis, Andre Custodio, Ernesto Diaz-Infante
Mastered by Darwin Grosse
Design by Tohru Kanayama
By the turn of the 21st century, free improvisation, even when mixed with pure noise, was a startlingly common phenomenon. Even so, this clever and unusual recording distinguishes itself for its uncommonly distinct sounds. Utilizing only three performers with extraordinary tonal palettes, the 30 mostly short tracks might remind the listener of works by John Zorn or somewhat similar efforts by the group Doctor Nerve, the difference being the focus here on pure noise and the unique instrumentation. Few listeners are likely to be familiar with the darbuka or a Line 6 (green pod), but what is ultimately important is the overall results, which in this case are compelling. Incorporating ambient sounds, computerized static and electronics, as well as unusual tones and even voice, the trio turns their back on convention to revel in the spontaneity of the moment. Many of the tracks are less than a minute in length, and none last as long as six minutes, but the trio digs deeply to unearth some extraordinary moments that disturb, cajole, and unearth new perspectives. To be sure, this recording is radical and often extreme, and is not intended to appeal to a mainstream audience. Those who take the time to discover and appreciate its desserts should not be disappointed, though, as the variety and diversity are nearly overwhelming. If only more musical efforts incorporated the attention to detail and the sense of wonder captured here: a good job all the way around.
 
Состав
Lx Rudis: Matrix 12
Andre Custodio: darbuka, tom-tom, and Line 6 [green pod]
Ernesto Diaz-Infante: acoustic guitar, violin, and voice
По всем вопросам пишите личное сообщение пользователю M0p94ok.
21:50
249
Нет комментариев. Ваш будет первым!