Вы используете незарегистрированную версию компонента "Вкладки"!

Поиск

(Avant-Garde Jazz, Free Jazz) [CD] Ornette Coleman - Six Classic Albums (1959-1961) (4CD) - 2012, FLAC (tracks+.cue), lossless

(Avant-Garde Jazz, Free Jazz) [CD] Ornette Coleman - Six Classic Albums (1959-1961) (4CD) - 2012, FLAC (tracks+.cue), lossless
Треклист:
Ornette Coleman - Six Classic Albums
Жанр: Avant-Garde Jazz, Free Jazz
Носитель: CD
Страна-производитель диска: Великобритания
Год издания: 2012
Издатель (лейбл): Real Gone Jazz
Номер по каталогу: RGJCD306
Аудиокодек: FLAC (*.flac)
Тип рипа: tracks+.cue
Битрейт аудио: lossless
Продолжительность: 4:00:58
Источник (релизер): watchnerd (what)
Наличие сканов в содержимом раздачи: нет
 
CD1 - The Shape of Jazz to Come (1959), This Is Our Music (1960) {76:50}
The Shape of Jazz to Come (1959):
01. Lonely Women (5:02)
02. Eventually (4:22)
03. Peace (9:03)
04. Focus on Sanity (6:51)
05. Congeniality (6:47)
06. Chronology (6:05)
This Is Our Music (1960):
07. Blues Connotation (5:15)
08. Beauty Is a Rare Thing (7:11)
09. Kaleidoscope (6:34)
10. Embraceable You (4:56)
11. Poise (4:36)
12. Humpty Dumpty (5:21)
13. Folk Tale (4:47)
 
Лог создания рипа
X Lossless Decoder version 20131102 (145.0)
XLD extraction logfile from 2013-12-28 09:46:52 -0800
Ornette Coleman / The Shape of Jazz to Come / This is Our Music
Used drive : HL-DT-ST DVDRW GX40N (revision RQ00)
Media type : Pressed CD
Ripper mode : XLD Secure Ripper
Disable audio cache : OK for the drive with a cache less than 1375KiB
Make use of C2 pointers : NO
Read offset correction : 6
Max retry count : 100
Gap status : Analyzed, Appended (except HTOA)
TOC of the extracted CD
Track | Start | Length | Start sector | End sector
---------------------------------------------------------
1 | 00:00:00 | 05:01:42 | 0 | 22616
2 | 05:01:42 | 04:22:05 | 22617 | 42271
3 | 09:23:47 | 09:02:58 | 42272 | 82979
4 | 18:26:30 | 06:50:70 | 82980 | 113799
5 | 25:17:25 | 06:47:06 | 113800 | 144330
6 | 32:04:31 | 06:04:58 | 144331 | 171688
7 | 38:09:14 | 05:15:26 | 171689 | 195339
8 | 43:24:40 | 07:11:00 | 195340 | 227664
9 | 50:35:40 | 06:33:60 | 227665 | 257199
10 | 57:09:25 | 04:56:00 | 257200 | 279399
11 | 62:05:25 | 04:36:32 | 279400 | 300131
12 | 66:41:57 | 05:20:50 | 300132 | 324181
13 | 72:02:32 | 04:46:45 | 324182 | 345676
List of alternate offset correction values
# | Absolute | Relative | Confidence
------------------------------------------
1 | 12 | 6 | 6
AccurateRip Summary (DiscID: 00264215-017e4881-9f12010d)
Track 01 : OK (v2, confidence 2/8)
Track 02 : OK (v2, confidence 2/8)
Track 03 : OK (v2, confidence 2/8)
Track 04 : OK (v2, confidence 2/8)
Track 05 : OK (v2, confidence 2/8)
Track 06 : OK (v2, confidence 2/8)
Track 07 : OK (v2, confidence 2/8)
Track 08 : OK (v2, confidence 2/8)
Track 09 : OK (v2, confidence 2/8)
Track 10 : OK (v2, confidence 2/8)
Track 11 : OK (v2, confidence 2/8)
Track 12 : OK (v2, confidence 2/8)
Track 13 : OK (v2, confidence 2/8)
->All tracks accurately ripped.
All Tracks
Album gain : -4.93 dB
Peak : 0.940796
Statistics
Read error : 0
Jitter error (maybe fixed) : 0
Retry sector count : 33
Damaged sector count : 0
Track 01
Filename : /Users/david/Temp/Ornette Coleman -The Shape of Jazz to Come пјЏ This is Our Music (2013) [FLAC]/01 Lonely Women.flac
Pre-gap length : 00:02:00
Track gain : -5.70 dB
Peak : 0.926056
CRC32 hash (test run) : F3F88F54
CRC32 hash : F3F88F54
CRC32 hash (skip zero) : CF7EA48F
AccurateRip v1 signature : 4FEC3D74
AccurateRip v2 signature : 9D4FAF91
->Accurately ripped (v2, confidence 2/8)
Statistics
Read error : 0
Jitter error (maybe fixed) : 0
Retry sector count : 14
Damaged sector count : 0
Track 02
Filename : /Users/david/Temp/Ornette Coleman -The Shape of Jazz to Come пјЏ This is Our Music (2013) [FLAC]/02 Eventually.flac
Track gain : -6.14 dB
Peak : 0.926056
CRC32 hash (test run) : A702A6FF
CRC32 hash : A702A6FF
CRC32 hash (skip zero) : 6020D866
AccurateRip v1 signature : 73F264A6
AccurateRip v2 signature : 761FE284
->Accurately ripped (v2, confidence 2/8)
Statistics
Read error : 0
Jitter error (maybe fixed) : 0
Retry sector count : 0
Damaged sector count : 0
Track 03
Filename : /Users/david/Temp/Ornette Coleman -The Shape of Jazz to Come пјЏ This is Our Music (2013) [FLAC]/03 Peace.flac
Track gain : -3.26 dB
Peak : 0.876740
CRC32 hash (test run) : E3C32847
CRC32 hash : E3C32847
CRC32 hash (skip zero) : 35064D89
AccurateRip v1 signature : C5EF0732
AccurateRip v2 signature : 23EF55E8
->Accurately ripped (v2, confidence 2/8)
Statistics
Read error : 0
Jitter error (maybe fixed) : 0
Retry sector count : 19
Damaged sector count : 0
Track 04
Filename : /Users/david/Temp/Ornette Coleman -The Shape of Jazz to Come пјЏ This is Our Music (2013) [FLAC]/04 Focus on Sanity.flac
Track gain : -2.79 dB
Peak : 0.926056
CRC32 hash (test run) : 9DD7AEBB
CRC32 hash : 9DD7AEBB
CRC32 hash (skip zero) : 672EDE09
AccurateRip v1 signature : 2A58F3B3
AccurateRip v2 signature : FF673D2A
->Accurately ripped (v2, confidence 2/8)
Statistics
Read error : 0
Jitter error (maybe fixed) : 0
Retry sector count : 0
Damaged sector count : 0
Track 05
Filename : /Users/david/Temp/Ornette Coleman -The Shape of Jazz to Come пјЏ This is Our Music (2013) [FLAC]/05 Congeniality.flac
Track gain : -4.16 dB
Peak : 0.916626
CRC32 hash (test run) : BD1CCEBE
CRC32 hash : BD1CCEBE
CRC32 hash (skip zero) : 0DF4C853
AccurateRip v1 signature : F2EFE318
AccurateRip v2 signature : C0257217
->Accurately ripped (v2, confidence 2/8)
Statistics
Read error : 0
Jitter error (maybe fixed) : 0
Retry sector count : 0
Damaged sector count : 0
Track 06
Filename : /Users/david/Temp/Ornette Coleman -The Shape of Jazz to Come пјЏ This is Our Music (2013) [FLAC]/06 Chronology.flac
Track gain : -4.71 dB
Peak : 0.923309
CRC32 hash (test run) : 90DF3B9D
CRC32 hash : 90DF3B9D
CRC32 hash (skip zero) : DCE4AEE1
AccurateRip v1 signature : FF215ED3
AccurateRip v2 signature : 0B671127
->Accurately ripped (v2, confidence 2/8)
Statistics
Read error : 0
Jitter error (maybe fixed) : 0
Retry sector count : 0
Damaged sector count : 0
Track 07
Filename : /Users/david/Temp/Ornette Coleman -The Shape of Jazz to Come пјЏ This is Our Music (2013) [FLAC]/07 Blues Connotation.flac
Track gain : -4.51 dB
Peak : 0.938080
CRC32 hash (test run) : 2F6FC88F
CRC32 hash : 2F6FC88F
CRC32 hash (skip zero) : FF45560F
AccurateRip v1 signature : B1122843
AccurateRip v2 signature : E73AA753
->Accurately ripped (v2, confidence 2/8)
Statistics
Read error : 0
Jitter error (maybe fixed) : 0
Retry sector count : 0
Damaged sector count : 0
Track 08
Filename : /Users/david/Temp/Ornette Coleman -The Shape of Jazz to Come пјЏ This is Our Music (2013) [FLAC]/08 Beauty is a Rare Thing.flac
Track gain : -4.53 dB
Peak : 0.940796
CRC32 hash (test run) : 17AE0162
CRC32 hash : 17AE0162
CRC32 hash (skip zero) : BE45A035
AccurateRip v1 signature : 93D1F1C9
AccurateRip v2 signature : B559205F
->Accurately ripped (v2, confidence 2/8)
Statistics
Read error : 0
Jitter error (maybe fixed) : 0
Retry sector count : 0
Damaged sector count : 0
Track 09
Filename : /Users/david/Temp/Ornette Coleman -The Shape of Jazz to Come пјЏ This is Our Music (2013) [FLAC]/09 Kaleidoscope.flac
Track gain : -5.01 dB
Peak : 0.839050
CRC32 hash (test run) : E1493AED
CRC32 hash : E1493AED
CRC32 hash (skip zero) : E5FB984E
AccurateRip v1 signature : 47EEFD84
AccurateRip v2 signature : F5B73B8C
->Accurately ripped (v2, confidence 2/8)
Statistics
Read error : 0
Jitter error (maybe fixed) : 0
Retry sector count : 0
Damaged sector count : 0
Track 10
Filename : /Users/david/Temp/Ornette Coleman -The Shape of Jazz to Come пјЏ This is Our Music (2013) [FLAC]/10 Embraceable You.flac
Track gain : -4.07 dB
Peak : 0.937714
CRC32 hash (test run) : FB197760
CRC32 hash : FB197760
CRC32 hash (skip zero) : 2E99C6E2
AccurateRip v1 signature : 50264763
AccurateRip v2 signature : CE5AA0F9
->Accurately ripped (v2, confidence 2/8)
Statistics
Read error : 0
Jitter error (maybe fixed) : 0
Retry sector count : 0
Damaged sector count : 0
Track 11
Filename : /Users/david/Temp/Ornette Coleman -The Shape of Jazz to Come пјЏ This is Our Music (2013) [FLAC]/11 Poise.flac
Track gain : -6.05 dB
Peak : 0.933746
CRC32 hash (test run) : 732E5472
CRC32 hash : 732E5472
CRC32 hash (skip zero) : 0D402D24
AccurateRip v1 signature : DC4B145A
AccurateRip v2 signature : 906B4914
->Accurately ripped (v2, confidence 2/8)
Statistics
Read error : 0
Jitter error (maybe fixed) : 0
Retry sector count : 0
Damaged sector count : 0
Track 12
Filename : /Users/david/Temp/Ornette Coleman -The Shape of Jazz to Come пјЏ This is Our Music (2013) [FLAC]/12 Humpty Dumpty.flac
Track gain : -4.33 dB
Peak : 0.914032
CRC32 hash (test run) : E41E9D09
CRC32 hash : E41E9D09
CRC32 hash (skip zero) : 66D6C27B
AccurateRip v1 signature : F672F4F6
AccurateRip v2 signature : 56D7336A
->Accurately ripped (v2, confidence 2/8)
Statistics
Read error : 0
Jitter error (maybe fixed) : 0
Retry sector count : 0
Damaged sector count : 0
Track 13
Filename : /Users/david/Temp/Ornette Coleman -The Shape of Jazz to Come пјЏ This is Our Music (2013) [FLAC]/13 Folk Tale.flac
Track gain : -6.47 dB
Peak : 0.935425
CRC32 hash (test run) : 902A2F7D
CRC32 hash : 902A2F7D
CRC32 hash (skip zero) : F9ADCE2F
AccurateRip v1 signature : 2A4D9217
AccurateRip v2 signature : D79EA7C1
->Accurately ripped (v2, confidence 2/8)
Statistics
Read error : 0
Jitter error (maybe fixed) : 0
Retry sector count : 0
Damaged sector count : 0
No errors occurred
End of status report
-----BEGIN XLD SIGNATURE-----
LXYh2PncIzlB1SaZTJyFPPxrU6ms3i.y02x5Jp.LthtZyqjVg8duopLK8ol6DUZvWbfDh3slKjrKj4ksxF6wH86Ml7igGiI.AYFIVGK
-----END XLD SIGNATURE-----
 
Содержание индексной карты (.CUE)
TITLE "The Shape of Jazz to Come, This Is Our Music"
PERFORMER "Ornette Coleman"
REM GENRE "Jazz"
REM DATE "2013"
REM DISCNUMBER 1
REM TOTALDISCS 4
REM DISCID 9F12010D
REM REPLAYGAIN_ALBUM_GAIN -4.93 dB
REM REPLAYGAIN_ALBUM_PEAK 0.940796
FILE "01 - Lonely Women.flac" WAVE
TRACK 01 AUDIO
TITLE "Lonely Women"
REM REPLAYGAIN_TRACK_GAIN -5.70 dB
REM REPLAYGAIN_TRACK_PEAK 0.926056
INDEX 01 00:00:00
FILE "02 - Eventually.flac" WAVE
TRACK 02 AUDIO
TITLE "Eventually"
REM REPLAYGAIN_TRACK_GAIN -6.14 dB
REM REPLAYGAIN_TRACK_PEAK 0.926056
INDEX 01 00:00:00
FILE "03 - Peace.flac" WAVE
TRACK 03 AUDIO
TITLE "Peace"
REM REPLAYGAIN_TRACK_GAIN -3.26 dB
REM REPLAYGAIN_TRACK_PEAK 0.876740
INDEX 01 00:00:00
FILE "04 - Focus on Sanity.flac" WAVE
TRACK 04 AUDIO
TITLE "Focus on Sanity"
REM REPLAYGAIN_TRACK_GAIN -2.79 dB
REM REPLAYGAIN_TRACK_PEAK 0.926056
INDEX 01 00:00:00
FILE "05 - Congeniality.flac" WAVE
TRACK 05 AUDIO
TITLE "Congeniality"
REM REPLAYGAIN_TRACK_GAIN -4.16 dB
REM REPLAYGAIN_TRACK_PEAK 0.916626
INDEX 01 00:00:00
FILE "06 - Chronology.flac" WAVE
TRACK 06 AUDIO
TITLE "Chronology"
REM REPLAYGAIN_TRACK_GAIN -4.71 dB
REM REPLAYGAIN_TRACK_PEAK 0.923309
INDEX 01 00:00:00
FILE "07 - Blues Connotation.flac" WAVE
TRACK 07 AUDIO
TITLE "Blues Connotation"
REM REPLAYGAIN_TRACK_GAIN -4.51 dB
REM REPLAYGAIN_TRACK_PEAK 0.938080
INDEX 01 00:00:00
FILE "08 - Beauty Is a Rare Thing.flac" WAVE
TRACK 08 AUDIO
TITLE "Beauty Is a Rare Thing"
REM REPLAYGAIN_TRACK_GAIN -4.53 dB
REM REPLAYGAIN_TRACK_PEAK 0.940796
INDEX 01 00:00:00
FILE "09 - Kaleidoscope.flac" WAVE
TRACK 09 AUDIO
TITLE "Kaleidoscope"
REM REPLAYGAIN_TRACK_GAIN -5.01 dB
REM REPLAYGAIN_TRACK_PEAK 0.839050
INDEX 01 00:00:00
FILE "10 - Embraceable You.flac" WAVE
TRACK 10 AUDIO
TITLE "Embraceable You"
REM REPLAYGAIN_TRACK_GAIN -4.07 dB
REM REPLAYGAIN_TRACK_PEAK 0.937714
INDEX 01 00:00:00
FILE "11 - Poise.flac" WAVE
TRACK 11 AUDIO
TITLE "Poise"
REM REPLAYGAIN_TRACK_GAIN -6.05 dB
REM REPLAYGAIN_TRACK_PEAK 0.933746
INDEX 01 00:00:00
FILE "12 - Humpty Dumpty.flac" WAVE
TRACK 12 AUDIO
TITLE "Humpty Dumpty"
REM REPLAYGAIN_TRACK_GAIN -4.33 dB
REM REPLAYGAIN_TRACK_PEAK 0.914032
INDEX 01 00:00:00
FILE "13 - Folk Tale.flac" WAVE
TRACK 13 AUDIO
TITLE "Folk Tale"
REM REPLAYGAIN_TRACK_GAIN -6.47 dB
REM REPLAYGAIN_TRACK_PEAK 0.935425
INDEX 01 00:00:00
 
Отчет CUETools
[CUETools log; Date: 29.12.2013 21:50:23; Version: 2.1.4]
[CTDB TOCID: 0C_B25biulEvNiMu9g3ttyMTXTQ-] found.
Track | CTDB Status
1 | (4/4) Accurately ripped
2 | (4/4) Accurately ripped
3 | (4/4) Accurately ripped
4 | (4/4) Accurately ripped
5 | (4/4) Accurately ripped
6 | (4/4) Accurately ripped
7 | (4/4) Accurately ripped
8 | (4/4) Accurately ripped
9 | (4/4) Accurately ripped
10 | (4/4) Accurately ripped
11 | (4/4) Accurately ripped
12 | (4/4) Accurately ripped
13 | (4/4) Accurately ripped
[AccurateRip ID: 00264215-017e4881-9f12010d] found.
Track [ CRC | V2 ] Status
01 [4fec3d74|9d4faf91] (0+2/8) Accurately ripped
02 [73f264a6|761fe284] (0+2/8) Accurately ripped
03 [c5ef0732|23ef55e8] (0+2/8) Accurately ripped
04 [2a58f3b3|ff673d2a] (0+2/8) Accurately ripped
05 [f2efe318|c0257217] (0+2/8) Accurately ripped
06 [ff215ed3|0b671127] (0+2/8) Accurately ripped
07 [b1122843|e73aa753] (0+2/8) Accurately ripped
08 [93d1f1c9|b559205f] (0+2/8) Accurately ripped
09 [47eefd84|f5b73b8c] (0+2/8) Accurately ripped
10 [50264763|ce5aa0f9] (0+2/8) Accurately ripped
11 [dc4b145a|906b4914] (0+2/8) Accurately ripped
12 [f672f4f6|56d7336a] (0+2/8) Accurately ripped
13 [2a4d9217|d79ea7c1] (0+2/8) Accurately ripped
Offsetted by 6:
01 [e970d58a] (2/8) Accurately ripped
02 [2346d556] (2/8) Accurately ripped
03 [6840f9da] (2/8) Accurately ripped
04 [60765b0f] (2/8) Accurately ripped
05 [eb73a77a] (2/8) Accurately ripped
06 [878d2c21] (2/8) Accurately ripped
07 [21997f07] (2/8) Accurately ripped
08 [37e0e4b9] (2/8) Accurately ripped
09 [660f17bc] (2/8) Accurately ripped
10 [f583c489] (2/8) Accurately ripped
11 [920f7fb6] (2/8) Accurately ripped
12 [3be4c314] (2/8) Accurately ripped
13 [739d7d17] (2/8) Accurately ripped
Track Peak [ CRC32 ] [W/O NULL]
-- 94,0 [CD39F975] [6A5D06DD]
01 92,6 [F3F88F54] [CF7EA48F]
02 92,6 [A702A6FF] [6020D866]
03 87,6 [E3C32847] [35064D89]
04 92,6 [9DD7AEBB] [672EDE09]
05 91,6 [BD1CCEBE] [0DF4C853]
06 92,3 [90DF3B9D] [DCE4AEE1]
07 93,8 [2F6FC88F] [FF45560F]
08 94,0 [17AE0162] [BE45A035]
09 83,9 [E1493AED] [E5FB984E]
10 93,7 [FB197760] [2E99C6E2]
11 93,3 [732E5472] [0D402D24]
12 91,4 [E41E9D09] [66D6C27B]
13 93,5 [902A2F7D] [F9ADCE2F]
 
CD2 - Change of the Century (1959), Free Jazz (1961) {78:18}
Change of the Century (1959):
01. Ramblin' (6:36)
02. Free (6:20)
03. The Face of the Bass (6:55)
04. Forerunner (5:13)
05. Bird Food (5:28)
06. Una Muy Bonita (5:59)
07. Change of the Century (4:41)
Free Jazz (1961):
08. Free Jazz (37:06)
 
Лог создания рипа
X Lossless Decoder version 20131102 (145.0)
XLD extraction logfile from 2013-12-28 10:51:10 -0800
Ornette Coleman / Change of the Century / Free Jazz
Used drive : HL-DT-ST DVDRW GX40N (revision RQ00)
Media type : Pressed CD
Ripper mode : XLD Secure Ripper
Disable audio cache : OK for the drive with a cache less than 1375KiB
Make use of C2 pointers : NO
Read offset correction : 6
Max retry count : 100
Gap status : Analyzed, Appended (except HTOA)
TOC of the extracted CD
Track | Start | Length | Start sector | End sector
---------------------------------------------------------
1 | 00:00:00 | 06:36:29 | 0 | 29728
2 | 06:36:29 | 06:20:27 | 29729 | 58255
3 | 12:56:56 | 06:55:36 | 58256 | 89416
4 | 19:52:17 | 05:12:38 | 89417 | 112854
5 | 25:04:55 | 05:27:74 | 112855 | 137453
6 | 30:32:54 | 05:59:01 | 137454 | 164379
7 | 36:31:55 | 04:40:55 | 164380 | 185434
8 | 41:12:35 | 37:06:11 | 185435 | 352395
List of alternate offset correction values
# | Absolute | Relative | Confidence
------------------------------------------
1 | 12 | 6 | 5
AccurateRip Summary (DiscID: 00113dc2-0076d066-77125a08)
Track 01 : OK (v2, confidence 2/7)
Track 02 : OK (v2, confidence 2/7)
Track 03 : OK (v2, confidence 2/7)
Track 04 : OK (v2, confidence 2/7)
Track 05 : OK (v2, confidence 2/7)
Track 06 : OK (v2, confidence 2/7)
Track 07 : OK (v2, confidence 2/7)
Track 08 : NG (total 5 submissions)
->7 tracks accurately ripped, 1 track not
All Tracks
Album gain : -5.75 dB
Peak : 0.999969
Statistics
Read error : 0
Jitter error (maybe fixed) : 0
Retry sector count : 22
Damaged sector count : 0
Track 01
Filename : /Users/david/Temp/Ornette Coleman -Change of the Century пјЏ Free Jazz (2013) [FLAC]/01 Ramblin'.flac
Pre-gap length : 00:02:00
Track gain : -4.00 dB
Peak : 0.999969
CRC32 hash (test run) : 5FA5D8B7
CRC32 hash : 5FA5D8B7
CRC32 hash (skip zero) : 9970B503
AccurateRip v1 signature : 6A269DEB
AccurateRip v2 signature : E2A78EA6
->Accurately ripped (v2, confidence 2/7)
Statistics
Read error : 0
Jitter error (maybe fixed) : 0
Retry sector count : 0
Damaged sector count : 0
Track 02
Filename : /Users/david/Temp/Ornette Coleman -Change of the Century пјЏ Free Jazz (2013) [FLAC]/02 Free.flac
Track gain : -4.10 dB
Peak : 0.974915
CRC32 hash (test run) : C26AA6B0
CRC32 hash : C26AA6B0
CRC32 hash (skip zero) : F1304639
AccurateRip v1 signature : B496A41D
AccurateRip v2 signature : C512E326
->Accurately ripped (v2, confidence 2/7)
Statistics
Read error : 0
Jitter error (maybe fixed) : 0
Retry sector count : 0
Damaged sector count : 0
Track 03
Filename : /Users/david/Temp/Ornette Coleman -Change of the Century пјЏ Free Jazz (2013) [FLAC]/03 The Face of the Bass.flac
Track gain : -2.78 dB
Peak : 0.944000
CRC32 hash (test run) : B7CC133D
CRC32 hash : B7CC133D
CRC32 hash (skip zero) : C08EA5E8
AccurateRip v1 signature : C6F3F985
AccurateRip v2 signature : AC77BD1F
->Accurately ripped (v2, confidence 2/7)
Statistics
Read error : 0
Jitter error (maybe fixed) : 0
Retry sector count : 0
Damaged sector count : 0
Track 04
Filename : /Users/david/Temp/Ornette Coleman -Change of the Century пјЏ Free Jazz (2013) [FLAC]/04 Forerunner.flac
Track gain : -3.28 dB
Peak : 0.939240
CRC32 hash (test run) : 0432E380
CRC32 hash : 0432E380
CRC32 hash (skip zero) : 95FD0095
AccurateRip v1 signature : D3FA5903
AccurateRip v2 signature : 91146D6A
->Accurately ripped (v2, confidence 2/7)
Statistics
Read error : 0
Jitter error (maybe fixed) : 0
Retry sector count : 0
Damaged sector count : 0
Track 05
Filename : /Users/david/Temp/Ornette Coleman -Change of the Century пјЏ Free Jazz (2013) [FLAC]/05 Bird Food.flac
Track gain : -4.00 dB
Peak : 0.999969
CRC32 hash (test run) : 6B9FFD55
CRC32 hash : 6B9FFD55
CRC32 hash (skip zero) : FAC6000B
AccurateRip v1 signature : 2FDDB2D4
AccurateRip v2 signature : BA0DCAD4
->Accurately ripped (v2, confidence 2/7)
Statistics
Read error : 0
Jitter error (maybe fixed) : 0
Retry sector count : 0
Damaged sector count : 0
Track 06
Filename : /Users/david/Temp/Ornette Coleman -Change of the Century пјЏ Free Jazz (2013) [FLAC]/06 Una Muy Bonita.flac
Track gain : -3.33 dB
Peak : 0.878754
CRC32 hash (test run) : 97439DCE
CRC32 hash : 97439DCE
CRC32 hash (skip zero) : 31729607
AccurateRip v1 signature : 7805A349
AccurateRip v2 signature : 6B003105
->Accurately ripped (v2, confidence 2/7)
Statistics
Read error : 0
Jitter error (maybe fixed) : 0
Retry sector count : 0
Damaged sector count : 0
Track 07
Filename : /Users/david/Temp/Ornette Coleman -Change of the Century пјЏ Free Jazz (2013) [FLAC]/07 Change of the Century.flac
Track gain : -3.74 dB
Peak : 0.999969
CRC32 hash (test run) : 566A5E2F
CRC32 hash : 566A5E2F
CRC32 hash (skip zero) : F1EEE279
AccurateRip v1 signature : 08607D0D
AccurateRip v2 signature : 78DBBD32
->Accurately ripped (v2, confidence 2/7)
Statistics
Read error : 0
Jitter error (maybe fixed) : 0
Retry sector count : 0
Damaged sector count : 0
Track 08
Filename : /Users/david/Temp/Ornette Coleman -Change of the Century пјЏ Free Jazz (2013) [FLAC]/08 Free Jazz.flac
Track gain : -6.90 dB
Peak : 0.972900
CRC32 hash (test run) : 2086EC30
CRC32 hash : 06F56672
->Rip may not be accurate.
CRC32 hash (skip zero) : 73C1A1EB
AccurateRip v1 signature : 54E773A8
AccurateRip v2 signature : 4D5D2E77
->Rip may not be accurate (total 5 submissions).
Statistics
Read error : 0
Jitter error (maybe fixed) : 0
Retry sector count : 22
Damaged sector count : 0
Some inconsistencies found
End of status report
-----BEGIN XLD SIGNATURE-----
sRbhk8zwPqh2tqFcFI5UGp1fJutxWHTBedy27fR5tpwIm3ciVcnEl4Q0iBhkTAaDoWYlSIQXpHL6yUUHrcnc6ZodyihPTQW7JP57YMq
-----END XLD SIGNATURE-----
 
Содержание индексной карты (.CUE)
TITLE "Change of the Century, Free Jazz"
PERFORMER "Ornette Coleman"
REM GENRE "Jazz"
REM DATE "2013"
REM DISCNUMBER 2
REM TOTALDISCS 4
REM DISCID 77125A08
REM REPLAYGAIN_ALBUM_GAIN -5.75 dB
REM REPLAYGAIN_ALBUM_PEAK 0.999969
FILE "01 - Ramblin'.flac" WAVE
TRACK 01 AUDIO
TITLE "Ramblin'"
REM REPLAYGAIN_TRACK_GAIN -4.00 dB
REM REPLAYGAIN_TRACK_PEAK 0.999969
INDEX 01 00:00:00
FILE "02 - Free.flac" WAVE
TRACK 02 AUDIO
TITLE "Free"
REM REPLAYGAIN_TRACK_GAIN -4.10 dB
REM REPLAYGAIN_TRACK_PEAK 0.974915
INDEX 01 00:00:00
FILE "03 - The Face of the Bass.flac" WAVE
TRACK 03 AUDIO
TITLE "The Face of the Bass"
REM REPLAYGAIN_TRACK_GAIN -2.78 dB
REM REPLAYGAIN_TRACK_PEAK 0.944000
INDEX 01 00:00:00
FILE "04 - Forerunner.flac" WAVE
TRACK 04 AUDIO
TITLE "Forerunner"
REM REPLAYGAIN_TRACK_GAIN -3.28 dB
REM REPLAYGAIN_TRACK_PEAK 0.939240
INDEX 01 00:00:00
FILE "05 - Bird Food.flac" WAVE
TRACK 05 AUDIO
TITLE "Bird Food"
REM REPLAYGAIN_TRACK_GAIN -4.00 dB
REM REPLAYGAIN_TRACK_PEAK 0.999969
INDEX 01 00:00:00
FILE "06 - Una Muy Bonita.flac" WAVE
TRACK 06 AUDIO
TITLE "Una Muy Bonita"
REM REPLAYGAIN_TRACK_GAIN -3.33 dB
REM REPLAYGAIN_TRACK_PEAK 0.878754
INDEX 01 00:00:00
FILE "07 - Change of the Century.flac" WAVE
TRACK 07 AUDIO
TITLE "Change of the Century"
REM REPLAYGAIN_TRACK_GAIN -3.74 dB
REM REPLAYGAIN_TRACK_PEAK 0.999969
INDEX 01 00:00:00
FILE "08 - Free Jazz.flac" WAVE
TRACK 08 AUDIO
TITLE "Free Jazz"
REM REPLAYGAIN_TRACK_GAIN -6.90 dB
REM REPLAYGAIN_TRACK_PEAK 0.972900
INDEX 01 00:00:00
 
Отчет CUETools
[CUETools log; Date: 29.12.2013 21:50:55; Version: 2.1.4]
[CTDB TOCID: ve3_eU4OfpnEPBuRJQq_AQZU3wI-] found.
Track | CTDB Status
1 | (3/3) Accurately ripped
2 | (3/3) Accurately ripped
3 | (3/3) Accurately ripped
4 | (3/3) Accurately ripped
5 | (3/3) Accurately ripped
6 | (3/3) Accurately ripped
7 | (3/3) Accurately ripped
8 | (1/3) Differs in 554 samples @29:49:11,30:38:09,32:14:45-32:14:46,33:25:50-33:25:51,33:25:72-33:25:73,33:26:42-33:26:43,34:38:74-34:39:00,34:39:22-34:39:23,34:39:67, or (1/3) differs in 374 samples @30:38:09,32:14:45-32:14:46,33:25:50-33:25:51,33:25:72-33:25:73,33:26:42-33:26:43,34:38:74-34:39:00,34:39:22-34:39:23,34:39:67, or (1/3) differs in 422 samples @30:38:09,32:14:45-32:14:46,33:25:72-33:25:73,33:26:42-33:26:43,34:39:22-34:39:23,34:39:67,34:40:37,34:40:59-34:40:60,36:19:54
[AccurateRip ID: 00113dc2-0076d066-77125a08] found.
Track [ CRC | V2 ] Status
01 [6a269deb|e2a78ea6] (0+2/7) Accurately ripped
02 [b496a41d|c512e326] (0+2/7) Accurately ripped
03 [c6f3f985|ac77bd1f] (0+2/7) Accurately ripped
04 [d3fa5903|91146d6a] (0+2/7) Accurately ripped
05 [2fddb2d4|ba0dcad4] (0+2/7) Accurately ripped
06 [7805a349|6b003105] (0+2/7) Accurately ripped
07 [08607d0d|78dbbd32] (0+2/7) Accurately ripped
08 [54e773a8|4d5d2e77] (0+0/5) No match
Offsetted by 6:
01 [6ca8d6f9] (2/7) Accurately ripped
02 [96ea984f] (2/7) Accurately ripped
03 [a1cfe559] (2/7) Accurately ripped
04 [215fb2cf] (2/7) Accurately ripped
05 [862d0188] (2/7) Accurately ripped
06 [ecb8954b] (2/7) Accurately ripped
07 [9ed5a03f] (2/7) Accurately ripped
08 [67ae916a] (0/5) No match (V2 was not tested)
Track Peak [ CRC32 ] [W/O NULL]
-- 100,0 [B64D733B] [1C395C3F]
01 99,9 [5FA5D8B7] [9970B503]
02 97,4 [C26AA6B0] [F1304639]
03 94,4 [B7CC133D] [C08EA5E8]
04 93,9 [0432E380] [95FD0095]
05 100,0 [6B9FFD55] [FAC6000B]
06 87,8 [97439DCE] [31729607]
07 100,0 [566A5E2F] [F1EEE279]
08 97,2 [06F56672] [73C1A1EB]
 
CD3 - Something Else !!!! (1958) {43:00}
Something Else !!!! (1958):
01. Invisible (4:17)
02. The Blessing (4:49)
03. Jayne (7:23)
04. Chippie (5:41)
05. The Disguise (2:52)
06. Angel Voice (4:24)
07. Alpha (4:15)
08. When Will the Blues Leave? (5:03)
09. The Sphinx (4:16)
 
Лог создания рипа
X Lossless Decoder version 20131102 (145.0)
XLD extraction logfile from 2013-12-28 12:35:13 -0800
Ornette Coleman / Something Else!!!!
Used drive : HL-DT-ST DVDRW GX40N (revision RQ00)
Media type : Pressed CD
Ripper mode : XLD Secure Ripper
Disable audio cache : OK for the drive with a cache less than 1375KiB
Make use of C2 pointers : NO
Read offset correction : 6
Max retry count : 100
Gap status : Analyzed, Appended (except HTOA)
TOC of the extracted CD
Track | Start | Length | Start sector | End sector
---------------------------------------------------------
1 | 00:00:00 | 04:17:10 | 0 | 19284
2 | 04:17:10 | 04:48:47 | 19285 | 40931
3 | 09:05:57 | 07:22:73 | 40932 | 74154
4 | 16:28:55 | 05:41:27 | 74155 | 99756
5 | 22:10:07 | 02:51:60 | 99757 | 112641
6 | 25:01:67 | 04:24:25 | 112642 | 132466
7 | 29:26:17 | 04:15:03 | 132467 | 151594
8 | 33:41:20 | 05:02:72 | 151595 | 174316
9 | 38:44:17 | 04:15:58 | 174317 | 193499
List of alternate offset correction values
# | Absolute | Relative | Confidence
------------------------------------------
1 | 1246 | 1240 | 7
2 | 1495 | 1489 | 6
3 | 1288 | 1282 | 5
4 | 12 | 6 | 5
AccurateRip Summary (DiscID: 000f3cfa-006f07da-700a1409)
Track 01 : OK (v2, confidence 2/26)
Track 02 : OK (v2, confidence 2/26)
Track 03 : OK (v2, confidence 2/27)
Track 04 : OK (v2, confidence 2/27)
Track 05 : OK (v2, confidence 2/27)
Track 06 : OK (v2, confidence 2/26)
Track 07 : OK (v2, confidence 2/27)
Track 08 : OK (v2, confidence 2/27)
Track 09 : OK (v2, confidence 2/25)
->All tracks accurately ripped.
All Tracks
Album gain : 2.97 dB
Peak : 0.831085
Statistics
Read error : 0
Jitter error (maybe fixed) : 0
Retry sector count : 0
Damaged sector count : 0
Track 01
Filename : /Users/david/Temp/Ornette Coleman - Something Else!!!! (2013) [FLAC]/01 Invisible.flac
Pre-gap length : 00:02:00
Track gain : 0.44 dB
Peak : 0.730988
CRC32 hash (test run) : CB03CA51
CRC32 hash : CB03CA51
CRC32 hash (skip zero) : 13AFF010
AccurateRip v1 signature : 4840D32E
AccurateRip v2 signature : A87D78A5
->Accurately ripped (v2, confidence 2/26)
Statistics
Read error : 0
Jitter error (maybe fixed) : 0
Retry sector count : 0
Damaged sector count : 0
Track 02
Filename : /Users/david/Temp/Ornette Coleman - Something Else!!!! (2013) [FLAC]/02 The Blessing.flac
Track gain : 4.32 dB
Peak : 0.739624
CRC32 hash (test run) : 540F34A2
CRC32 hash : 540F34A2
CRC32 hash (skip zero) : 8779D33B
AccurateRip v1 signature : EAFF4695
AccurateRip v2 signature : 58AC05FD
->Accurately ripped (v2, confidence 2/26)
Statistics
Read error : 0
Jitter error (maybe fixed) : 0
Retry sector count : 0
Damaged sector count : 0
Track 03
Filename : /Users/david/Temp/Ornette Coleman - Something Else!!!! (2013) [FLAC]/03 Jayne.flac
Track gain : 4.69 dB
Peak : 0.725281
CRC32 hash (test run) : E3AB7F3D
CRC32 hash : E3AB7F3D
CRC32 hash (skip zero) : 37D113A7
AccurateRip v1 signature : 39476242
AccurateRip v2 signature : 874A0B51
->Accurately ripped (v2, confidence 2/27)
Statistics
Read error : 0
Jitter error (maybe fixed) : 0
Retry sector count : 0
Damaged sector count : 0
Track 04
Filename : /Users/david/Temp/Ornette Coleman - Something Else!!!! (2013) [FLAC]/04 Chippie.flac
Track gain : 3.25 dB
Peak : 0.703857
CRC32 hash (test run) : 8D373EE3
CRC32 hash : 8D373EE3
CRC32 hash (skip zero) : 4227CFDA
AccurateRip v1 signature : E402BC63
AccurateRip v2 signature : 6097F077
->Accurately ripped (v2, confidence 2/27)
Statistics
Read error : 0
Jitter error (maybe fixed) : 0
Retry sector count : 0
Damaged sector count : 0
Track 05
Filename : /Users/david/Temp/Ornette Coleman - Something Else!!!! (2013) [FLAC]/05 The Disguise.flac
Track gain : 3.16 dB
Peak : 0.774048
CRC32 hash (test run) : F651D2E9
CRC32 hash : F651D2E9
CRC32 hash (skip zero) : F96DD946
AccurateRip v1 signature : 333863C3
AccurateRip v2 signature : DE3108CC
->Accurately ripped (v2, confidence 2/27)
Statistics
Read error : 0
Jitter error (maybe fixed) : 0
Retry sector count : 0
Damaged sector count : 0
Track 06
Filename : /Users/david/Temp/Ornette Coleman - Something Else!!!! (2013) [FLAC]/06 Angel Voice.flac
Track gain : 3.10 dB
Peak : 0.759186
CRC32 hash (test run) : DFA8DE7E
CRC32 hash : DFA8DE7E
CRC32 hash (skip zero) : F81F156A
AccurateRip v1 signature : E397D6A0
AccurateRip v2 signature : A199D367
->Accurately ripped (v2, confidence 2/26)
Statistics
Read error : 0
Jitter error (maybe fixed) : 0
Retry sector count : 0
Damaged sector count : 0
Track 07
Filename : /Users/david/Temp/Ornette Coleman - Something Else!!!! (2013) [FLAC]/07 Alpha.flac
Track gain : 2.80 dB
Peak : 0.762604
CRC32 hash (test run) : 94D372B5
CRC32 hash : 94D372B5
CRC32 hash (skip zero) : E0F2CE31
AccurateRip v1 signature : D19D8005
AccurateRip v2 signature : D4E86B92
->Accurately ripped (v2, confidence 2/27)
Statistics
Read error : 0
Jitter error (maybe fixed) : 0
Retry sector count : 0
Damaged sector count : 0
Track 08
Filename : /Users/david/Temp/Ornette Coleman - Something Else!!!! (2013) [FLAC]/08 When Will The Blues Leave?.flac
Track gain : 3.04 dB
Peak : 0.831085
CRC32 hash (test run) : E56C6653
CRC32 hash : E56C6653
CRC32 hash (skip zero) : BA6B6552
AccurateRip v1 signature : 5502C048
AccurateRip v2 signature : C31E5399
->Accurately ripped (v2, confidence 2/27)
Statistics
Read error : 0
Jitter error (maybe fixed) : 0
Retry sector count : 0
Damaged sector count : 0
Track 09
Filename : /Users/david/Temp/Ornette Coleman - Something Else!!!! (2013) [FLAC]/09 The Sphinx.flac
Track gain : 1.69 dB
Peak : 0.821686
CRC32 hash (test run) : 373A3573
CRC32 hash : 373A3573
CRC32 hash (skip zero) : E3392C6E
AccurateRip v1 signature : B209A871
AccurateRip v2 signature : D19BEB42
->Accurately ripped (v2, confidence 2/25)
Statistics
Read error : 0
Jitter error (maybe fixed) : 0
Retry sector count : 0
Damaged sector count : 0
No errors occurred
End of status report
-----BEGIN XLD SIGNATURE-----
qtej2UR0qp2mjk0zMOkLj_La8oByRs2GD7vHGU.LdIAqKL1rwctR9aVVCqTo1JCC9pD5yZYRMRiv1b3NtZGWKam2wdNgtuUYHf0_AhW
-----END XLD SIGNATURE-----
 
Содержание индексной карты (.CUE)
TITLE "Something Else !!!!"
PERFORMER "Ornette Coleman"
REM GENRE "Jazz"
REM DATE "2013"
REM DISCNUMBER 3
REM TOTALDISCS 4
REM DISCID 700A1409
REM REPLAYGAIN_ALBUM_GAIN 2.97 dB
REM REPLAYGAIN_ALBUM_PEAK 0.831085
FILE "01 - Invisible.flac" WAVE
TRACK 01 AUDIO
TITLE "Invisible"
REM REPLAYGAIN_TRACK_GAIN 0.44 dB
REM REPLAYGAIN_TRACK_PEAK 0.730988
INDEX 01 00:00:00
FILE "02 - The Blessing.flac" WAVE
TRACK 02 AUDIO
TITLE "The Blessing"
REM REPLAYGAIN_TRACK_GAIN 4.32 dB
REM REPLAYGAIN_TRACK_PEAK 0.739624
INDEX 01 00:00:00
FILE "03 - Jayne.flac" WAVE
TRACK 03 AUDIO
TITLE "Jayne"
REM REPLAYGAIN_TRACK_GAIN 4.69 dB
REM REPLAYGAIN_TRACK_PEAK 0.725281
INDEX 01 00:00:00
FILE "04 - Chippie.flac" WAVE
TRACK 04 AUDIO
TITLE "Chippie"
REM REPLAYGAIN_TRACK_GAIN 3.25 dB
REM REPLAYGAIN_TRACK_PEAK 0.703857
INDEX 01 00:00:00
FILE "05 - The Disguise.flac" WAVE
TRACK 05 AUDIO
TITLE "The Disguise"
REM REPLAYGAIN_TRACK_GAIN 3.16 dB
REM REPLAYGAIN_TRACK_PEAK 0.774048
INDEX 01 00:00:00
FILE "06 - Angel Voice.flac" WAVE
TRACK 06 AUDIO
TITLE "Angel Voice"
REM REPLAYGAIN_TRACK_GAIN 3.10 dB
REM REPLAYGAIN_TRACK_PEAK 0.759186
INDEX 01 00:00:00
FILE "07 - Alpha.flac" WAVE
TRACK 07 AUDIO
TITLE "Alpha"
REM REPLAYGAIN_TRACK_GAIN 2.80 dB
REM REPLAYGAIN_TRACK_PEAK 0.762604
INDEX 01 00:00:00
FILE "08 - When Will the Blues Leave.flac" WAVE
TRACK 08 AUDIO
TITLE "When Will the Blues Leave?"
REM REPLAYGAIN_TRACK_GAIN 3.04 dB
REM REPLAYGAIN_TRACK_PEAK 0.831085
INDEX 01 00:00:00
FILE "09 - The Sphinx.flac" WAVE
TRACK 09 AUDIO
TITLE "The Sphinx"
REM REPLAYGAIN_TRACK_GAIN 1.69 dB
REM REPLAYGAIN_TRACK_PEAK 0.821686
INDEX 01 00:00:00
 
Отчет CUETools
[CUETools log; Date: 29.12.2013 21:51:15; Version: 2.1.4]
[CTDB TOCID: Rg_.5QsbTG23Kutz_zdlDyVyOYc-] found.
Track | CTDB Status
1 | (10/10) Accurately ripped
2 | ( 6/10) Accurately ripped, or (4/10) differs in 982 samples @00:00:01-00:00:02
3 | ( 6/10) Accurately ripped, or (4/10) differs in 1115 samples @00:00:01-00:00:02
4 | ( 6/10) Accurately ripped, or (4/10) differs in 1097 samples @00:00:01-00:00:02
5 | ( 6/10) Accurately ripped, or (4/10) differs in 1105 samples @00:00:01-00:00:02
6 | ( 6/10) Accurately ripped, or (4/10) differs in 1102 samples @00:00:01-00:00:02
7 | ( 6/10) Accurately ripped, or (4/10) differs in 1116 samples @00:00:01-00:00:02
8 | ( 6/10) Accurately ripped, or (4/10) differs in 1067 samples @00:00:01-00:00:02
9 | ( 5/10) Accurately ripped, or (4/10) differs in 340 samples @00:00:01-00:00:02
[AccurateRip ID: 000f3cfa-006f07da-700a1409] found.
Track [ CRC | V2 ] Status
01 [4840d32e|a87d78a5] (00+02/26) Accurately ripped
02 [eaff4695|58ac05fd] (00+02/26) Accurately ripped
03 [39476242|874a0b51] (00+02/27) Accurately ripped
04 [e402bc63|6097f077] (00+02/27) Accurately ripped
05 [333863c3|de3108cc] (00+02/27) Accurately ripped
06 [e397d6a0|a199d367] (00+02/26) Accurately ripped
07 [d19d8005|d4e86b92] (00+02/27) Accurately ripped
08 [5502c048|c31e5399] (00+02/27) Accurately ripped
09 [b209a871|d19beb42] (00+02/25) Accurately ripped
Offsetted by 6:
01 [e72a190d] (02/26) Accurately ripped
02 [5ae7cdd3] (02/26) Accurately ripped
03 [464b5b03] (02/27) Accurately ripped
04 [3feed84f] (02/27) Accurately ripped
05 [9a0203ca] (02/27) Accurately ripped
06 [4b75fcc1] (02/26) Accurately ripped
07 [10a1cfe0] (02/27) Accurately ripped
08 [7048e913] (02/27) Accurately ripped
09 [0325580b] (02/25) Accurately ripped
Offsetted by 1240:
01 [de857694] (00/26) No match (V2 was not tested)
02 [d958d547] (00/26) No match (V2 was not tested)
03 [bcad8fa9] (00/27) No match (V2 was not tested)
04 [8e838f28] (00/27) No match (V2 was not tested)
05 [e9776644] (00/27) No match (V2 was not tested)
06 [37faaad6] (00/26) No match (V2 was not tested)
07 [9467733c] (00/27) No match (V2 was not tested)
08 [3affa7a9] (00/27) No match (V2 was not tested)
09 [ca103672] (03/25) Accurately ripped
Offsetted by 1282:
01 [1812c5c1] (00/26) No match (V2 was not tested)
02 [212cce11] (00/26) No match (V2 was not tested)
03 [42e38342] (00/27) No match (V2 was not tested)
04 [033b0553] (00/27) No match (V2 was not tested)
05 [fcd238a7] (00/27) No match (V2 was not tested)
06 [fbb5f2e9] (00/26) No match (V2 was not tested)
07 [3c3eabf3] (00/27) No match (V2 was not tested)
08 [8def2e87] (00/27) No match (V2 was not tested)
09 [4d7b3254] (02/25) Accurately ripped
Offsetted by 1489:
01 [217badb9] (00/26) No match (V2 was not tested)
02 [f2ecc4d3] (00/26) No match (V2 was not tested)
03 [acbe8d69] (00/27) No match (V2 was not tested)
04 [c7e18d66] (00/27) No match (V2 was not tested)
05 [7a0547a0] (00/27) No match (V2 was not tested)
06 [a70d8688] (00/26) No match (V2 was not tested)
07 [157f0fcd] (00/27) No match (V2 was not tested)
08 [85da41d1] (00/27) No match (V2 was not tested)
09 [5eaaac05] (03/25) Accurately ripped
Track Peak [ CRC32 ] [W/O NULL]
-- 83,1 [DF0CB52E] [A09333C5]
01 73,0 [CB03CA51] [13AFF010]
02 73,9 [540F34A2] [8779D33B]
03 72,5 [E3AB7F3D] [37D113A7]
04 70,3 [8D373EE3] [4227CFDA]
05 77,4 [F651D2E9] [F96DD946]
06 75,9 [DFA8DE7E] [F81F156A]
07 76,2 [94D372B5] [E0F2CE31]
08 83,1 [E56C6653] [BA6B6552]
09 82,1 [373A3573] [E3392C6E]
 
CD4 - Tomorrow Is the Question! (1959) {42:52}
Tomorrow Is the Question! (1959):
01. Tomorrow Is the Question! (3:13)
02. Tears Inside (5:05)
03. Mind and Time (3:12)
04. Compassion (4:40)
05. Giggin' (3:23)
06. Rejoicing (4:04)
07. Lorraine (5:59)
08. Turnaround (7:58)
09. Endless (5:18)
 
Лог создания рипа
X Lossless Decoder version 20131102 (145.0)
XLD extraction logfile from 2013-12-28 13:44:45 -0800
Ornette Coleman / Tomorrow is the Question!
Used drive : HL-DT-ST DVDRW GX40N (revision RQ00)
Media type : Pressed CD
Ripper mode : XLD Secure Ripper
Disable audio cache : OK for the drive with a cache less than 1375KiB
Make use of C2 pointers : NO
Read offset correction : 6
Max retry count : 100
Gap status : Analyzed, Appended (except HTOA)
TOC of the extracted CD
Track | Start | Length | Start sector | End sector
---------------------------------------------------------
1 | 00:00:00 | 03:12:47 | 0 | 14446
2 | 03:12:47 | 05:04:48 | 14447 | 37294
3 | 08:17:20 | 03:11:52 | 37295 | 51671
4 | 11:28:72 | 04:39:53 | 51672 | 72649
5 | 16:08:50 | 03:22:67 | 72650 | 87866
6 | 19:31:42 | 04:03:48 | 87867 | 106139
7 | 23:35:15 | 05:59:15 | 106140 | 133079
8 | 29:34:30 | 07:58:32 | 133080 | 168961
9 | 37:32:62 | 05:17:38 | 168962 | 192774
List of alternate offset correction values
# | Absolute | Relative | Confidence
------------------------------------------
1 | -64 | -70 | 7
2 | 698 | 692 | 6
3 | 12 | 6 | 5
4 | 600 | 594 | 3
AccurateRip Summary (DiscID: 000d3278-006316fc-800a0a09)
Track 01 : OK (v2, confidence 2/47)
Track 02 : OK (v2, confidence 2/47)
Track 03 : OK (v2, confidence 2/47)
Track 04 : OK (v2, confidence 2/47)
Track 05 : OK (v2, confidence 2/47)
Track 06 : OK (v2, confidence 2/46)
Track 07 : OK (v2, confidence 2/47)
Track 08 : OK (v2, confidence 2/48)
Track 09 : OK (v2, confidence 2/47)
->All tracks accurately ripped.
All Tracks
Album gain : 1.69 dB
Peak : 0.729095
Statistics
Read error : 0
Jitter error (maybe fixed) : 0
Retry sector count : 0
Damaged sector count : 0
Track 01
Filename : /Users/david/Temp/Ornette Coleman - Tomorrow is the Question! (2013) [FLAC]/01 Tomorrow is the Question.flac
Pre-gap length : 00:02:00
Track gain : 0.61 dB
Peak : 0.729095
CRC32 hash (test run) : 9672C753
CRC32 hash : 9672C753
CRC32 hash (skip zero) : 3B9D2406
AccurateRip v1 signature : A636120C
AccurateRip v2 signature : 40705718
->Accurately ripped (v2, confidence 2/47)
Statistics
Read error : 0
Jitter error (maybe fixed) : 0
Retry sector count : 0
Damaged sector count : 0
Track 02
Filename : /Users/david/Temp/Ornette Coleman - Tomorrow is the Question! (2013) [FLAC]/02 Tears Inside.flac
Track gain : 1.05 dB
Peak : 0.663818
CRC32 hash (test run) : E1BA1E2C
CRC32 hash : E1BA1E2C
CRC32 hash (skip zero) : B1B69F1B
AccurateRip v1 signature : AFD9241A
AccurateRip v2 signature : E831F9C9
->Accurately ripped (v2, confidence 2/47)
Statistics
Read error : 0
Jitter error (maybe fixed) : 0
Retry sector count : 0
Damaged sector count : 0
Track 03
Filename : /Users/david/Temp/Ornette Coleman - Tomorrow is the Question! (2013) [FLAC]/03 Mind and Time.flac
Track gain : 1.05 dB
Peak : 0.622253
CRC32 hash (test run) : B0E1766A
CRC32 hash : B0E1766A
CRC32 hash (skip zero) : B7A8D00A
AccurateRip v1 signature : C1A58AB8
AccurateRip v2 signature : 035F2623
->Accurately ripped (v2, confidence 2/47)
Statistics
Read error : 0
Jitter error (maybe fixed) : 0
Retry sector count : 0
Damaged sector count : 0
Track 04
Filename : /Users/david/Temp/Ornette Coleman - Tomorrow is the Question! (2013) [FLAC]/04 Compassion.flac
Track gain : 1.57 dB
Peak : 0.509796
CRC32 hash (test run) : 68E32CEE
CRC32 hash : 68E32CEE
CRC32 hash (skip zero) : 8B571E61
AccurateRip v1 signature : AA5567AA
AccurateRip v2 signature : BDE9456D
->Accurately ripped (v2, confidence 2/47)
Statistics
Read error : 0
Jitter error (maybe fixed) : 0
Retry sector count : 0
Damaged sector count : 0
Track 05
Filename : /Users/david/Temp/Ornette Coleman - Tomorrow is the Question! (2013) [FLAC]/05 Giggin'.flac
Track gain : 1.45 dB
Peak : 0.633087
CRC32 hash (test run) : 6B8BBB0B
CRC32 hash : 6B8BBB0B
CRC32 hash (skip zero) : E90731B6
AccurateRip v1 signature : 1B6B37C1
AccurateRip v2 signature : EF376310
->Accurately ripped (v2, confidence 2/47)
Statistics
Read error : 0
Jitter error (maybe fixed) : 0
Retry sector count : 0
Damaged sector count : 0
Track 06
Filename : /Users/david/Temp/Ornette Coleman - Tomorrow is the Question! (2013) [FLAC]/06 Rejoicing.flac
Track gain : 2.01 dB
Peak : 0.627655
CRC32 hash (test run) : CC176478
CRC32 hash : CC176478
CRC32 hash (skip zero) : 4E3D1A2D
AccurateRip v1 signature : 99C010B6
AccurateRip v2 signature : E0E096B9
->Accurately ripped (v2, confidence 2/46)
Statistics
Read error : 0
Jitter error (maybe fixed) : 0
Retry sector count : 0
Damaged sector count : 0
Track 07
Filename : /Users/david/Temp/Ornette Coleman - Tomorrow is the Question! (2013) [FLAC]/07 Lorraine.flac
Track gain : 2.20 dB
Peak : 0.658966
CRC32 hash (test run) : 6E3F7075
CRC32 hash : 6E3F7075
CRC32 hash (skip zero) : 29AB1E25
AccurateRip v1 signature : 75D5B794
AccurateRip v2 signature : DF775F68
->Accurately ripped (v2, confidence 2/47)
Statistics
Read error : 0
Jitter error (maybe fixed) : 0
Retry sector count : 0
Damaged sector count : 0
Track 08
Filename : /Users/david/Temp/Ornette Coleman - Tomorrow is the Question! (2013) [FLAC]/08 Turnaround.flac
Track gain : 3.49 dB
Peak : 0.605988
CRC32 hash (test run) : 5BF34C83
CRC32 hash : 5BF34C83
CRC32 hash (skip zero) : ED48B978
AccurateRip v1 signature : 8D644113
AccurateRip v2 signature : DC6F9E22
->Accurately ripped (v2, confidence 2/48)
Statistics
Read error : 0
Jitter error (maybe fixed) : 0
Retry sector count : 0
Damaged sector count : 0
Track 09
Filename : /Users/david/Temp/Ornette Coleman - Tomorrow is the Question! (2013) [FLAC]/09 Endless.flac
Track gain : 2.35 dB
Peak : 0.527191
CRC32 hash (test run) : 10EAC84D
CRC32 hash : 10EAC84D
CRC32 hash (skip zero) : 6E55AA23
AccurateRip v1 signature : B9854598
AccurateRip v2 signature : 92C42E15
->Accurately ripped (v2, confidence 2/47)
Statistics
Read error : 0
Jitter error (maybe fixed) : 0
Retry sector count : 0
Damaged sector count : 0
No errors occurred
End of status report
-----BEGIN XLD SIGNATURE-----
a_qEl.1jVW2GClnP4.YA.hU4RqneHLQHTVvdIU1qrjZaZJhk59fYaqEIVQznmYerkePTQmCaOzF_eKkHckPBZU1b4adBymydAzm2wdC
-----END XLD SIGNATURE-----
 
Содержание индексной карты (.CUE)
TITLE "Tomorrow Is the Question!"
PERFORMER "Ornette Coleman"
REM GENRE "Jazz"
REM DATE "2013"
REM DISCNUMBER 4
REM TOTALDISCS 4
REM DISCID 800A0A09
REM REPLAYGAIN_ALBUM_GAIN 1.69 dB
REM REPLAYGAIN_ALBUM_PEAK 0.729095
FILE "01 - Tomorrow Is the Question!.flac" WAVE
TRACK 01 AUDIO
TITLE "Tomorrow Is the Question!"
REM REPLAYGAIN_TRACK_GAIN 0.61 dB
REM REPLAYGAIN_TRACK_PEAK 0.729095
INDEX 01 00:00:00
FILE "02 - Tears Inside.flac" WAVE
TRACK 02 AUDIO
TITLE "Tears Inside"
REM REPLAYGAIN_TRACK_GAIN 1.05 dB
REM REPLAYGAIN_TRACK_PEAK 0.663818
INDEX 01 00:00:00
FILE "03 - Mind and Time.flac" WAVE
TRACK 03 AUDIO
TITLE "Mind and Time"
REM REPLAYGAIN_TRACK_GAIN 1.05 dB
REM REPLAYGAIN_TRACK_PEAK 0.622253
INDEX 01 00:00:00
FILE "04 - Compassion.flac" WAVE
TRACK 04 AUDIO
TITLE "Compassion"
REM REPLAYGAIN_TRACK_GAIN 1.57 dB
REM REPLAYGAIN_TRACK_PEAK 0.509796
INDEX 01 00:00:00
FILE "05 - Giggin'.flac" WAVE
TRACK 05 AUDIO
TITLE "Giggin'"
REM REPLAYGAIN_TRACK_GAIN 1.45 dB
REM REPLAYGAIN_TRACK_PEAK 0.633087
INDEX 01 00:00:00
FILE "06 - Rejoicing.flac" WAVE
TRACK 06 AUDIO
TITLE "Rejoicing"
REM REPLAYGAIN_TRACK_GAIN 2.01 dB
REM REPLAYGAIN_TRACK_PEAK 0.627655
INDEX 01 00:00:00
FILE "07 - Lorraine.flac" WAVE
TRACK 07 AUDIO
TITLE "Lorraine"
REM REPLAYGAIN_TRACK_GAIN 2.20 dB
REM REPLAYGAIN_TRACK_PEAK 0.658966
INDEX 01 00:00:00
FILE "08 - Turnaround.flac" WAVE
TRACK 08 AUDIO
TITLE "Turnaround"
REM REPLAYGAIN_TRACK_GAIN 3.49 dB
REM REPLAYGAIN_TRACK_PEAK 0.605988
INDEX 01 00:00:00
FILE "09 - Endless.flac" WAVE
TRACK 09 AUDIO
TITLE "Endless"
REM REPLAYGAIN_TRACK_GAIN 2.35 dB
REM REPLAYGAIN_TRACK_PEAK 0.527191
INDEX 01 00:00:00
 
Отчет CUETools
[CUETools log; Date: 29.12.2013 21:51:38; Version: 2.1.4]
[CTDB TOCID: G9YEawF1xx_oOLLvp99xVhZbM3U-] found.
Track | CTDB Status
1 | (12/12) Accurately ripped
2 | ( 6/12) Accurately ripped, or (6/12) differs in 956 samples @00:00:00
3 | ( 6/12) Accurately ripped, or (6/12) differs in 960 samples @00:00:00
4 | ( 6/12) Accurately ripped, or (6/12) differs in 915 samples @00:00:00
5 | ( 6/12) Accurately ripped, or (6/12) differs in 966 samples @00:00:00
6 | ( 6/12) Accurately ripped, or (6/12) differs in 935 samples @00:00:00
7 | ( 6/12) Accurately ripped, or (6/12) differs in 574 samples @00:00:00
8 | ( 6/12) Accurately ripped, or (6/12) differs in 971 samples @00:00:00
9 | ( 6/12) Accurately ripped, or (6/12) differs in 967 samples @00:00:00
[AccurateRip ID: 000d3278-006316fc-800a0a09] found.
Track [ CRC | V2 ] Status
01 [a636120c|40705718] (00+02/47) Accurately ripped
02 [afd9241a|e831f9c9] (00+02/47) Accurately ripped
03 [c1a58ab8|035f2623] (00+02/47) Accurately ripped
04 [aa5567aa|bde9456d] (00+02/47) Accurately ripped
05 [1b6b37c1|ef376310] (00+02/47) Accurately ripped
06 [99c010b6|e0e096b9] (00+02/46) Accurately ripped
07 [75d5b794|df775f68] (00+02/47) Accurately ripped
08 [8d644113|dc6f9e22] (00+02/48) Accurately ripped
09 [b9854598|92c42e15] (00+02/47) Accurately ripped
Offsetted by 6:
01 [fe1c00a9] (02/47) Accurately ripped
02 [c4d2146b] (02/47) Accurately ripped
03 [f283932a] (02/47) Accurately ripped
04 [63b12041] (02/47) Accurately ripped
05 [8c950a0e] (02/47) Accurately ripped
06 [3640f504] (02/46) Accurately ripped
07 [68554b99] (02/47) Accurately ripped
08 [318c9d75] (02/48) Accurately ripped
09 [462ba1b6] (02/47) Accurately ripped
Offsetted by -70:
01 [481f200c] (03/47) Accurately ripped
02 [9a0b5189] (00/47) No match (V2 was not tested)
03 [415f637d] (00/47) No match (V2 was not tested)
04 [7cd0ec1c] (00/47) No match (V2 was not tested)
05 [1365c60c] (00/47) No match (V2 was not tested)
06 [22fb9956] (00/46) No match (V2 was not tested)
07 [5f623de2] (00/47) No match (V2 was not tested)
08 [bb491561] (00/48) No match (V2 was not tested)
09 [fd08346c] (00/47) No match (V2 was not tested)
Offsetted by 298:
01 [e2de8160] (00/47) No match (V2 was not tested)
02 [cef0e5dc] (00/47) No match (V2 was not tested)
03 [757f57a4] (00/47) No match (V2 was not tested)
04 [19290440] (00/47) No match (V2 was not tested)
05 [b2536d31] (00/47) No match (V2 was not tested)
06 [53b64b77] (00/46)
По всем вопросам пишите личное сообщение пользователю M0p94ok.
21:53
151
Нет комментариев. Ваш будет первым!