Вы используете незарегистрированную версию компонента "Вкладки"!

Поиск

(Avant-Garde Jazz, Free Improvisation) John Coltrane - My Favourite Things - 1991, FLAC (image+.cue), lossless

(Avant-Garde Jazz, Free Improvisation) John Coltrane - My Favourite Things - 1991, FLAC (image+.cue), lossless
Треклист:
•John Coltrane - My Favourite Things•
Жанр: Avant-Garde Jazz, Free Improvisation
Страна-производитель диска: France
Год издания: 1991
Издатель (лейбл): ORO
Номер по каталогу: 129
Аудиокодек: FLAC (*.flac)
Тип рипа: image+.cue
Битрейт аудио: lossless
Продолжительность: 00:57:41
Источник (релизер): Рип с диска.
Наличие сканов в содержимом раздачи: да
Треклист:
01. My Favourite Things [10:34]
02. Blue Train [09:02]
03. Impressions [07:24]
04. Spiritual [11:59]
05. Naima [07:06]
06. Traneing In [11:33]
 
Лог создания рипа
Exact Audio Copy V1.0 beta 3 from 29. August 2011
Отчёт EAC об извлечении, выполненном 29. августа 2012, 12:41
John Coltrane / My Favourite Things
Дисковод: Optiarc DVD RW AD-5200A Adapter: 0 ID: 0
Режим чтения : Достоверность
Использование точного потока : Да
Отключение кэша аудио : Да
Использование указателей C2 : Нет
Коррекция смещения при чтении : 48
Способность читать области Lead-in и Lead-out : Нет
Заполнение пропущенных сэмплов тишиной : Да
Удаление блоков с тишиной в начале и конце : Нет
При вычислениях CRC использовались нулевые сэмплы : Да
Интерфейс : Встроенный Win32-интерфейс для Win NT/2000
Выходной формат : Пользовательский кодировщик
Выбранный битрейт : 128 kBit/s
Качество : Высокий
Добавление ID3-тега : Нет
Утилита сжатия : C:\Program Files\Exact Audio Copy\Flac\flac.exe
Дополнительные параметры : -V -8 -T "Genre=%genre%" -T "Artist=%artist%" -T "Title=%title%" -T "Album=%albumtitle%" -T "Date=%year%" -T "Tracknumber=%tracknr%" -T "Comment=%comment%" %source%
TOC извлечённого CD
Трек | Старт | Длительность | Начальный сектор | Конечный сектор
---------------------------------------------------------------------
1 | 0:00.32 | 10:37.40 | 32 | 47846
2 | 10:37.72 | 9:04.65 | 47847 | 88711
3 | 19:42.62 | 7:26.73 | 88712 | 122234
4 | 27:09.60 | 12:02.12 | 122235 | 176396
5 | 39:11.72 | 7:09.15 | 176397 | 208586
6 | 46:21.12 | 11:33.30 | 208587 | 260591
Характеристики диапазона извлечения и сообщения об ошибках
Выбранный диапазон
Имя файла F:\1991.John Coltrane - My Favourite Things\John Coltrane - My Favourite Things.wav
Пиковый уровень 90.8 %
Скорость извлечения 3.6 X
Качество диапазона 99.9 %
CRC теста 74D0E41B
CRC копии 74D0E41B
Копирование... OK
Ошибок не произошло
AccurateRip: сводка
Трек 1 отсутствует в базе данных
Трек 2 отсутствует в базе данных
Трек 3 отсутствует в базе данных
Трек 4 отсутствует в базе данных
Трек 5 отсутствует в базе данных
Трек 6 отсутствует в базе данных
Ни одного трека нет в базе AccurateRip
Конец отчёта
==== Контрольная сумма отчёта 9484D92740E46EF0F5A7950457FC93936BD48F9F2B673F5022707A64EC65EA5C ====
 
Содержание индексной карты (.CUE)
REM GENRE Jazz
REM DATE 1991
REM DISCID 4E0D9206
REM COMMENT "ExactAudioCopy v1.0b3"
PERFORMER "John Coltrane"
TITLE "My Favourite Things"
FILE "John Coltrane - My Favourite Things.flac" WAVE
TRACK 01 AUDIO
TITLE "My Favourite Things"
PERFORMER "John Coltrane"
INDEX 00 00:00:00
INDEX 01 00:00:32
TRACK 02 AUDIO
TITLE "Blue Train"
PERFORMER "John Coltrane"
INDEX 00 10:35:20
INDEX 01 10:37:72
TRACK 03 AUDIO
TITLE "Impressions"
PERFORMER "John Coltrane"
INDEX 00 19:40:30
INDEX 01 19:42:62
TRACK 04 AUDIO
TITLE "Spiritual"
PERFORMER "John Coltrane"
INDEX 00 27:07:47
INDEX 01 27:09:60
TRACK 05 AUDIO
TITLE "Naima"
PERFORMER "John Coltrane"
INDEX 00 39:09:10
INDEX 01 39:11:72
TRACK 06 AUDIO
TITLE "Traneing In"
PERFORMER "John Coltrane"
INDEX 00 46:18:55
INDEX 01 46:21:12
Any questions -> support@pro-jazz.com. По всем вопросам пишите -> support@pro-jazz.com
03:18
158
Нет комментариев. Ваш будет первым!