Вы используете незарегистрированную версию компонента "Вкладки"!

Поиск

(Free Jazz) Test (Tom Bruno, Matthew Heyner, Sabir Mateen, Daniel Carter) - Test (AUM Fidelity) - 1999, FLAC (image+.cue), lossless

(Free Jazz) Test (Tom Bruno, Matthew Heyner, Sabir Mateen, Daniel Carter) - Test (AUM Fidelity) - 1999, FLAC (image+.cue), lossless
Треклист:
Test / Test
Жанр: Free Jazz
Страна-производитель диска: US
Год издания: 1999
Издатель (лейбл): AUM Fidelity
Номер по каталогу: AUM012
Аудиокодек: FLAC (*.flac)
Тип рипа: image+.cue
Битрейт аудио: lossless
Продолжительность: 58:42
Источник (релизер): cd
Наличие сканов в содержимом раздачи: нет
Треклист:
1 HuhuhuH (Nite Sounds on 5th) 21:50
2 Straightahead, Forward Motion 11:00
3 Alen's Flight Preparation 4:36
4 Bustin' Outta De Chamber 14:24
5 What R U Going 2 Due?! 6:43
 
Лог создания рипа
Exact Audio Copy V1.0 beta 2 from 29. April 2011
EAC extraction logfile from 21. August 2012, 12:55
Test / Test (Aum)
Used drive : Optiarc DVD RW AD-7170A Adapter: 0 ID: 0
Read mode : Secure
Utilize accurate stream : Yes
Defeat audio cache : Yes
Make use of C2 pointers : No
Read offset correction : 48
Overread into Lead-In and Lead-Out : No
Fill up missing offset samples with silence : Yes
Delete leading and trailing silent blocks : No
Null samples used in CRC calculations : Yes
Used interface : Native Win32 interface for Win NT & 2000
Used output format : User Defined Encoder
Selected bitrate : 320 kBit/s
Quality : High
Add ID3 tag : No
Command line compressor : C:\Program Files\Exact Audio Copy\Flac\flac.exe
Additional command line options : -V -8 -T "Date=%year%" -T "Genre=%genre%" %source%
TOC of the extracted CD
Track | Start | Length | Start sector | End sector
---------------------------------------------------------
1 | 0:00.00 | 21:53.02 | 0 | 98476
2 | 21:53.02 | 11:03.47 | 98477 | 148248
3 | 32:56.49 | 4:36.11 | 148249 | 168959
4 | 37:32.60 | 14:26.20 | 168960 | 233929
5 | 51:59.05 | 6:43.35 | 233930 | 264189
Range status and errors
Selected range
Filename K:\ЕАС\Test - Test (Aum).wav
Peak level 97.7 %
Extraction speed 2.0 X
Range quality 99.9 %
Test CRC 5B4C18C6
Copy CRC 5B4C18C6
Copy OK
No errors occurred
AccurateRip summary
Track 1 accurately ripped (confidence 4) [01DC8221] (AR v1)
Track 2 accurately ripped (confidence 4) [BB99770B] (AR v1)
Track 3 accurately ripped (confidence 4) [51EB8BD3] (AR v1)
Track 4 accurately ripped (confidence 4) [E22A0D21] (AR v1)
Track 5 accurately ripped (confidence 4) [D8901D1C] (AR v1)
All tracks accurately ripped
End of status report
==== Log checksum 712239FFD846204B58C50584A39CA686BF50111969467D7F7F2844D56CFBD96B ====
 
Содержание индексной карты (.CUE)
REM GENRE Jazz
REM DATE 1999
REM DISCID 390DC205
REM COMMENT "ExactAudioCopy v1.0b2"
PERFORMER "Test"
TITLE "Test (Aum)"
FILE "Test - Test (Aum).flac" WAVE
TRACK 01 AUDIO
TITLE "huhuhuH (nite sounds on 5th)"
PERFORMER "Test"
ISRC 000000000000
INDEX 01 00:00:00
TRACK 02 AUDIO
TITLE "Straightahead, forward motion"
PERFORMER "Test"
ISRC 000000000000
INDEX 00 21:50:02
INDEX 01 21:53:02
TRACK 03 AUDIO
TITLE "Alen's flight preparation"
PERFORMER "Test"
ISRC 000000000000
INDEX 00 32:54:49
INDEX 01 32:56:49
TRACK 04 AUDIO
TITLE "Bustin' outta de Chamber"
PERFORMER "Test"
ISRC 000000000000
INDEX 01 37:32:60
TRACK 05 AUDIO
TITLE "what R U going 2 due?!"
PERFORMER "Test"
ISRC 000000000000
INDEX 00 51:57:05
INDEX 01 51:59:05
Доп. информация: Recorded by Alen Hadzi Stefanov, August 5, 1998 at AUM Hi-Q, Brooklyn. Mixed by Daniel Goldaracena, March 9, 1999 at Mindswerve, Manhattan
 
Состав
Bass – Matthew Heyner
Drums – Tom Bruno
Saxophone [Alto, Tenor], Flute, Clarinet – Sabir Mateen
Saxophone [Alto, Tenor], Trumpet, Flute – Daniel Carter
Any questions -> support@pro-jazz.com. По всем вопросам пишите -> support@pro-jazz.com
03:18
208
Нет комментариев. Ваш будет первым!