Вы используете незарегистрированную версию компонента "Вкладки"!

Поиск

(Avant-Garde Jazz, Free Improvisation) String Trio Of New York - Common Goal - 1982, FLAC (tracks+.cue), lossless

(Avant-Garde Jazz, Free Improvisation) String Trio Of New York - Common Goal - 1982, FLAC (tracks+.cue), lossless
Треклист:
•String Trio Of New York - Common Goal•
Жанр: Avant-Garde Jazz, Free Improvisation
Страна-производитель диска: Italy
Год издания: 1982
Издатель (лейбл): Black Saint
Номер по каталогу: 120058-2
Аудиокодек: FLAC (*.flac)
Тип рипа: tracks+.cue
Битрейт аудио: lossless
Продолжительность: 00:41:43
Источник (релизер): mishka1981
Наличие сканов в содержимом раздачи: да
Треклист:
01. Multiple Reasons [07:11]
02. Space Walk [07:54]
03. San San Nana [05:54]
04. Between The Lines [07:00]
05. Common Goal [06:07]
06. Extensions And Exceptions [07:36]
Personnel:
Billy Bang (violin)
James Emery (g)
John Lindberg (b)
 
Лог создания рипа
Exact Audio Copy V1.0 beta 1 from 15. November 2010
EAC extraction logfile from 29. August 2012, 15:16
The String Trio Of New York / Common Goal
Used drive : Optiarc DVD RW AD-7710H Adapter: 1 ID: 0
Read mode : Secure
Utilize accurate stream : Yes
Defeat audio cache : Yes
Make use of C2 pointers : No
Read offset correction : 48
Overread into Lead-In and Lead-Out : No
Fill up missing offset samples with silence : Yes
Delete leading and trailing silent blocks : No
Null samples used in CRC calculations : Yes
Used interface : Native Win32 interface for Win NT & 2000
Gap handling : Appended to previous track
Used output format : User Defined Encoder
Selected bitrate : 896 kBit/s
Quality : High
Add ID3 tag : No
Command line compressor : C:\Program Files\Exact Audio Copy\FLAC\FLAC.EXE
Additional command line options : -8 -V -T "ARTIST=%a" -T "TITLE=%t" -T "ALBUM=%g" -T "DATE=%y" -T "TRACKNUMBER=%n" -T "GENRE=%m" -T "COMMENT=%e" %j--picture="%i"%j %s -o %d
TOC of the extracted CD
Track | Start | Length | Start sector | End sector
---------------------------------------------------------
1 | 0:00.33 | 7:11.32 | 33 | 32389
2 | 7:11.65 | 7:54.63 | 32390 | 68002
3 | 15:06.53 | 5:54.55 | 68003 | 94607
4 | 21:01.33 | 7:00.00 | 94608 | 126107
5 | 28:01.33 | 6:07.00 | 126108 | 153632
6 | 34:08.33 | 7:36.00 | 153633 | 187832
Track 1
Filename C:\MY RIPS\01 - Multiple Reasons.wav
Pre-gap length 0:00:02.33
Peak level 92.6 %
Extraction speed 3.0 X
Track quality 100.0 %
Test CRC CC36012E
Copy CRC CC36012E
Track not present in AccurateRip database
Copy OK
Track 2
Filename C:\MY RIPS\02 - Space Walk.wav
Peak level 98.1 %
Extraction speed 3.3 X
Track quality 99.9 %
Test CRC B7EF368E
Copy CRC B7EF368E
Accurately ripped (confidence 2) [A62988E9]
Copy OK
Track 3
Filename C:\MY RIPS\03 - San San Nana.wav
Peak level 100.0 %
Extraction speed 4.0 X
Track quality 100.0 %
Test CRC 988EF0A8
Copy CRC 988EF0A8
Accurately ripped (confidence 2) [F2C1FD75]
Copy OK
Track 4
Filename C:\MY RIPS\04 - Between The Lines.wav
Peak level 83.1 %
Extraction speed 4.3 X
Track quality 100.0 %
Test CRC DAD27625
Copy CRC DAD27625
Accurately ripped (confidence 2) [5CCB51DD]
Copy OK
Track 5
Filename C:\MY RIPS\05 - Common Goal.wav
Peak level 89.9 %
Extraction speed 4.7 X
Track quality 100.0 %
Test CRC 8968B1A0
Copy CRC 8968B1A0
Accurately ripped (confidence 2) [DA66CD0C]
Copy OK
Track 6
Filename C:\MY RIPS\06 - Extensions And Exceptions.wav
Peak level 97.4 %
Extraction speed 5.1 X
Track quality 100.0 %
Test CRC 7749EECE
Copy CRC 7749EECE
Accurately ripped (confidence 2) [0157D27F]
Copy OK
5 track(s) accurately ripped
1 track(s) not present in the AccurateRip database
Some tracks could not be verified as accurate
No errors occurred
End of status report
==== Log checksum BAD632A2AB8185CCECC706A54D4F8547C781F71AB2B8584427EACB89921C7C66 ====
 
Содержание индексной карты (.CUE)
REM GENRE Crossover
REM DATE 1982
REM DISCID 4209C806
REM COMMENT "ExactAudioCopy v1.0b1"
PERFORMER "The String Trio Of New York"
TITLE "Common Goal"
FILE "01 - Multiple Reasons.wav" WAVE
TRACK 01 AUDIO
TITLE "Multiple Reasons"
PERFORMER "The String Trio Of New York"
PREGAP 00:00:33
INDEX 01 00:00:00
FILE "02 - Space Walk.wav" WAVE
TRACK 02 AUDIO
TITLE "Space Walk"
PERFORMER "The String Trio Of New York"
INDEX 01 00:00:00
FILE "03 - San San Nana.wav" WAVE
TRACK 03 AUDIO
TITLE "San San Nana"
PERFORMER "The String Trio Of New York"
INDEX 01 00:00:00
FILE "04 - Between The Lines.wav" WAVE
TRACK 04 AUDIO
TITLE "Between The Lines"
PERFORMER "The String Trio Of New York"
INDEX 01 00:00:00
FILE "05 - Common Goal.wav" WAVE
TRACK 05 AUDIO
TITLE "Common Goal"
PERFORMER "The String Trio Of New York"
INDEX 01 00:00:00
FILE "06 - Extensions And Exceptions.wav" WAVE
TRACK 06 AUDIO
TITLE "Extensions And Exceptions"
PERFORMER "The String Trio Of New York"
INDEX 01 00:00:00
Any questions -> support@pro-jazz.com. По всем вопросам пишите -> support@pro-jazz.com
03:19
137
Нет комментариев. Ваш будет первым!