Вы используете незарегистрированную версию компонента "Вкладки"!

Поиск

(Avant-Garde Jazz, Free Improvisation) Guillermo Gregorio, Mats Gustafsson, Kjell Nordeson - Background Music - 1998, FLAC (tracks+.cue), lossless

(Avant-Garde Jazz, Free Improvisation) Guillermo Gregorio, Mats Gustafsson, Kjell Nordeson - Background Music - 1998, FLAC (tracks+.cue), lossless
Треклист:
•Guillermo Gregorio, Mats Gustafsson, Kjell Nordeson - Background Music•
Жанр: Avant-Garde Jazz, Free Improvisation
Страна-производитель диска: Switzerland
Год издания диска: 1998
Издатель (лейбл): HatHut
Номер по каталогу: 526
Аудиокодек: FLAC (*.flac)
Тип рипа: tracks+.cue
Битрейт аудио: lossless
Продолжительность: 00:52:48
Источник (релизер): mishka1981
Наличие сканов в содержимом раздачи: да
Треклист:
01. Vanderin' (To Ken Vandermark) 4:22
02. A Tiny Bit More (To Tiny Kahn) 18:34
03. Cannots 4:55
04. Worn: First Variation 2:11
05. Worn: Second Variation 5:01
06. Worn: Third Variation 4:06
07. Just About Five: Beginning 4:52
08. Just About Five: Between 4:59
09. Just About Five: Conclusion 4:48
Personnel:Guillermo Gregorio (clarinet, alto saxophone, tenor saxophone);
Mats Gustafsson (tenor saxophone);
Kjell Nordeson (drums, percussion).Recording information: WNUR Studios, Chicago, IL (01/19/1998).
 
Лог создания рипа
Exact Audio Copy V1.0 beta 1 from 15. November 2010
EAC extraction logfile from 18. February 2012, 15:21
Gregorio, Gustafsson, Nordeson / Background Music
Used drive : TSSTcorpCDDVDW TS-L633A Adapter: 3 ID: 0
Read mode : Secure
Utilize accurate stream : Yes
Defeat audio cache : Yes
Make use of C2 pointers : No
Read offset correction : 6
Overread into Lead-In and Lead-Out : No
Fill up missing offset samples with silence : Yes
Delete leading and trailing silent blocks : No
Null samples used in CRC calculations : Yes
Used interface : Installed external ASPI interface
Gap handling : Appended to previous track
Used output format : User Defined Encoder
Selected bitrate : 896 kBit/s
Quality : High
Add ID3 tag : No
Command line compressor : C:\Program Files\Exact Audio Copy\FLAC\FLAC.EXE
Additional command line options : -8 -V -T "ARTIST=%a" -T "TITLE=%t" -T "ALBUM=%g" -T "DATE=%y" -T "TRACKNUMBER=%n" -T "TOTALTRACKS=%x" -T "GENRE=%m" -T "ALBUMARTIST=%v" -T "ALBUM ARTIST=%v" -T "COMMENT=EAC Secure Mode, Test & Copy, AccurateRip, FLAC -8" %s
TOC of the extracted CD
Track | Start | Length | Start sector | End sector
---------------------------------------------------------
1 | 0:00.00 | 4:22.62 | 0 | 19711
2 | 4:22.62 | 17:34.00 | 19712 | 98761
3 | 21:56.62 | 4:55.00 | 98762 | 120886
4 | 26:51.62 | 2:11.00 | 120887 | 130711
5 | 29:02.62 | 5:01.00 | 130712 | 153286
6 | 34:03.62 | 4:06.00 | 153287 | 171736
7 | 38:09.62 | 4:52.00 | 171737 | 193636
8 | 43:01.62 | 4:59.00 | 193637 | 216061
9 | 48:00.62 | 4:48.13 | 216062 | 237674
Track 1
Filename C:\MY RIPS\01 - Vanderin' (to Ken Vandermark).wav
Pre-gap length 0:00:02.00
Peak level 91.3 %
Extraction speed 1.1 X
Track quality 100.0 %
Test CRC 71DC97F8
Copy CRC 71DC97F8
Accurately ripped (confidence 5) [08B9DF9E]
Copy OK
Track 2
Filename C:\MY RIPS\02 - A Tiny Bit More (to Tiny Kahn).wav
Peak level 92.9 %
Extraction speed 1.5 X
Track quality 100.0 %
Test CRC B08DAC2A
Copy CRC B08DAC2A
Accurately ripped (confidence 5) [989BD840]
Copy OK
Track 3
Filename C:\MY RIPS\03 - Cannots.wav
Peak level 92.0 %
Extraction speed 1.6 X
Track quality 100.0 %
Test CRC 793ABDF8
Copy CRC 793ABDF8
Accurately ripped (confidence 5) [A1AC49C3]
Copy OK
Track 4
Filename C:\MY RIPS\04 - Worn a First Variation.wav
Peak level 89.7 %
Extraction speed 1.5 X
Track quality 100.0 %
Test CRC 3898BF47
Copy CRC 3898BF47
Accurately ripped (confidence 5) [C56BD436]
Copy OK
Track 5
Filename C:\MY RIPS\05 - Worn b Second Variation.wav
Peak level 15.5 %
Extraction speed 1.8 X
Track quality 100.0 %
Test CRC 394E9484
Copy CRC 394E9484
Accurately ripped (confidence 5) [93534856]
Copy OK
Track 6
Filename C:\MY RIPS\06 - Worn c Third Variation.wav
Peak level 66.2 %
Extraction speed 1.8 X
Track quality 100.0 %
Test CRC DEC1F47B
Copy CRC DEC1F47B
Accurately ripped (confidence 5) [AD6B80D7]
Copy OK
Track 7
Filename C:\MY RIPS\07 - Just About Five a Beginning.wav
Peak level 92.0 %
Extraction speed 1.9 X
Track quality 100.0 %
Test CRC F787B196
Copy CRC F787B196
Accurately ripped (confidence 5) [9A533DBE]
Copy OK
Track 8
Filename C:\MY RIPS\08 - Just About Five b Between.wav
Peak level 91.7 %
Extraction speed 2.0 X
Track quality 100.0 %
Test CRC DF676424
Copy CRC DF676424
Accurately ripped (confidence 5) [C5B38857]
Copy OK
Track 9
Filename C:\MY RIPS\09 - Just About Five c Conclusion.wav
Peak level 9.0 %
Extraction speed 2.1 X
Track quality 100.0 %
Test CRC 041A0E8D
Copy CRC 041A0E8D
Accurately ripped (confidence 3) [26FCE2F4]
Copy OK
All tracks accurately ripped
No errors occurred
End of status report
==== Log checksum B3B794EEECDF19D74B814A6DB74D288A501844A40C62126F3A9E49E94A98E453 ====
 
Содержание индексной карты (.CUE)
REM GENRE Jazz
REM DATE 1998
REM DISCID 750C6109
REM COMMENT "ExactAudioCopy v1.0b1"
PERFORMER "Gregorio, Gustafsson, Nordeson"
TITLE "Background Music"
FILE "01 - Vanderin' (to Ken Vandermark).wav" WAVE
TRACK 01 AUDIO
TITLE "Vanderin' (to Ken Vandermark)"
PERFORMER "Gregorio, Gustafsson, Nordeson"
INDEX 01 00:00:00
FILE "02 - A Tiny Bit More (to Tiny Kahn).wav" WAVE
TRACK 02 AUDIO
TITLE "A Tiny Bit More (to Tiny Kahn)"
PERFORMER "Gregorio, Gustafsson, Nordeson"
INDEX 01 00:00:00
FILE "03 - Cannots.wav" WAVE
TRACK 03 AUDIO
TITLE "Cannots"
PERFORMER "Gregorio, Gustafsson, Nordeson"
INDEX 01 00:00:00
FILE "04 - Worn a First Variation.wav" WAVE
TRACK 04 AUDIO
TITLE "Worn a First Variation"
PERFORMER "Gregorio, Gustafsson, Nordeson"
INDEX 01 00:00:00
FILE "05 - Worn b Second Variation.wav" WAVE
TRACK 05 AUDIO
TITLE "Worn b Second Variation"
PERFORMER "Gregorio, Gustafsson, Nordeson"
INDEX 01 00:00:00
FILE "06 - Worn c Third Variation.wav" WAVE
TRACK 06 AUDIO
TITLE "Worn c Third Variation"
PERFORMER "Gregorio, Gustafsson, Nordeson"
INDEX 01 00:00:00
FILE "07 - Just About Five a Beginning.wav" WAVE
TRACK 07 AUDIO
TITLE "Just About Five a Beginning"
PERFORMER "Gregorio, Gustafsson, Nordeson"
INDEX 01 00:00:00
FILE "08 - Just About Five b Between.wav" WAVE
TRACK 08 AUDIO
TITLE "Just About Five b Between"
PERFORMER "Gregorio, Gustafsson, Nordeson"
INDEX 01 00:00:00
FILE "09 - Just About Five c Conclusion.wav" WAVE
TRACK 09 AUDIO
TITLE "Just About Five c Conclusion"
PERFORMER "Gregorio, Gustafsson, Nordeson"
INDEX 01 00:00:00
Any questions -> support@pro-jazz.com. По всем вопросам пишите -> support@pro-jazz.com
22:08
122
Нет комментариев. Ваш будет первым!