Вы используете незарегистрированную версию компонента "Вкладки"!

Поиск

(avant-garde jazz) Rich West - Heavenly Breakfast - 2006, (tracks+.cue), lossless

(avant-garde jazz) Rich West - Heavenly Breakfast - 2006, (tracks+.cue), lossless
Треклист:
Rich West / Heavenly Breakfast
Жанр: avant-garde jazz
Страна-производитель диска: USA
Год издания диска: 2006
Издатель (лейбл): pfMentum
Номер по каталогу: CD035
Страна: USA
Аудиокодек: FLAC (*.flac)
Тип рипа: tracks+.cue
Битрейт аудио: lossless
Источник (релизер): Собственный рип
Наличие сканов в содержимом раздачи: да
Треклист:
1. Bloomsday
2. A Performer`s Objective Is ti Put Everyone to Sleep
3. You Never Want to Tell People You`re a Scent
4. Le Petomane
5. Detritus or Treasures
6. Death Pledge
7. Glenn`s Conducting
 
Лог создания рипа
Exact Audio Copy V0.99 prebeta 5 from 4. May 2009
EAC extraction logfile from 22. June 2011, 23:15
Rich West / Heavenly Breakfast
Used drive : Optiarc DVD RW AD-7243S Adapter: 0 ID: 1
Read mode : Secure
Utilize accurate stream : Yes
Defeat audio cache : Yes
Make use of C2 pointers : No
Read offset correction : 48
Overread into Lead-In and Lead-Out : No
Fill up missing offset samples with silence : Yes
Delete leading and trailing silent blocks : No
Null samples used in CRC calculations : Yes
Used interface : Native Win32 interface for Win NT & 2000
Gap handling : Appended to previous track
Used output format : User Defined Encoder
Selected bitrate : 768 kBit/s
Quality : High
Add ID3 tag : No
Command line compressor : C:\Program Files\Exact Audio Copy\FLAC\FLAC.EXE
Additional command line options : -6 -V -T "ARTIST=%a" -T "TITLE=%t" -T "ALBUM=%g" -T "DATE=%y" -T "TRACKNUMBER=%n" -T "GENRE=%m" -T "COMMENT=%e" %s -o %d
TOC of the extracted CD
Track | Start | Length | Start sector | End sector
---------------------------------------------------------
1 | 0:00.00 | 11:05.67 | 0 | 49941
2 | 11:05.67 | 7:03.44 | 49942 | 81710
3 | 18:09.36 | 11:40.62 | 81711 | 134272
4 | 29:50.23 | 7:21.37 | 134273 | 167384
5 | 37:11.60 | 8:08.02 | 167385 | 203986
6 | 45:19.62 | 9:08.66 | 203987 | 245152
7 | 54:28.53 | 18:03.34 | 245153 | 326411
Track 1
Filename C:\Documents and Settings\S\Мои документы\Torrent раздача\01.Rich West-Bloomsday.wav
Pre-gap length 0:00:02.00
Peak level 90.8 %
Track quality 100.0 %
Test CRC A975AB03
Copy CRC A975AB03
Track not present in AccurateRip database
Copy OK
Track 2
Filename C:\Documents and Settings\S\Мои документы\Torrent раздача\02.Rich West-A Performer`s Objective is to Put Everyone to Sleep.wav
Pre-gap length 0:00:02.00
Peak level 92.1 %
Track quality 100.0 %
Test CRC 3CC3702A
Copy CRC 3CC3702A
Track not present in AccurateRip database
Copy OK
Track 3
Filename C:\Documents and Settings\S\Мои документы\Torrent раздача\03.Rich West-3. You Never Want to Tell Peple You`re a Scent.wav
Pre-gap length 0:00:04.00
Peak level 93.1 %
Track quality 99.9 %
Test CRC 39C2313C
Copy CRC 39C2313C
Track not present in AccurateRip database
Copy OK
Track 4
Filename C:\Documents and Settings\S\Мои документы\Torrent раздача\04.Rich West-Le Petomane.wav
Pre-gap length 0:00:03.00
Peak level 92.0 %
Track quality 100.0 %
Test CRC B89BB8FD
Copy CRC B89BB8FD
Track not present in AccurateRip database
Copy OK
Track 5
Filename C:\Documents and Settings\S\Мои документы\Torrent раздача\05.Rich West-Detritus or Treasures.wav
Pre-gap length 0:00:02.00
Peak level 92.5 %
Track quality 100.0 %
Test CRC B3E1CC2D
Copy CRC B3E1CC2D
Track not present in AccurateRip database
Copy OK
Track 6
Filename C:\Documents and Settings\S\Мои документы\Torrent раздача\06.Rich West-Death Plenge.wav
Pre-gap length 0:00:02.00
Peak level 91.4 %
Track quality 99.9 %
Test CRC 58F10591
Copy CRC 58F10591
Track not present in AccurateRip database
Copy OK
Track 7
Filename C:\Documents and Settings\S\Мои документы\Torrent раздача\07.Rich West-Glenn`s Conducting.wav
Pre-gap length 0:00:02.00
Peak level 90.8 %
Track quality 100.0 %
Test CRC 3E004C96
Copy CRC 3E004C96
Track not present in AccurateRip database
Copy OK
None of the tracks are present in the AccurateRip database
No errors occurred
End of status report
 
Содержание индексной карты (.CUE)
REM GENRE "avant-garde jazz"
REM DATE 2006
REM DISCID 55110007
REM COMMENT "ExactAudioCopy v1.0b3"
PERFORMER "Heavendy Breakfast"
TITLE "Rich West"
FILE "01 Bloomsday.wav" WAVE
TRACK 01 AUDIO
TITLE "Bloomsday"
PERFORMER "Heavendy Breakfast"
INDEX 01 00:00:00
TRACK 02 AUDIO
TITLE "A Performer`s Objective Is to Put Everyone to Sleep"
PERFORMER "Heavendy Breakfast"
INDEX 00 11:03:67
FILE "02 A Performer`s Objective Is to Put Everyone to Sleep.wav" WAVE
INDEX 01 00:00:00
TRACK 03 AUDIO
TITLE "You Never Want to Tell People You`re a Scent"
PERFORMER "Heavendy Breakfast"
INDEX 00 06:59:44
FILE "03 You Never Want to Tell People You`re a Scent.wav" WAVE
INDEX 01 00:00:00
TRACK 04 AUDIO
TITLE "Le Petomane"
PERFORMER "Heavendy Breakfast"
INDEX 00 11:37:62
FILE "04 Le Petomane.wav" WAVE
INDEX 01 00:00:00
TRACK 05 AUDIO
TITLE "Detritus or Treasures"
PERFORMER "Heavendy Breakfast"
INDEX 00 07:19:37
FILE "05 Detritus or Treasures.wav" WAVE
INDEX 01 00:00:00
TRACK 06 AUDIO
TITLE "Death Pledge"
PERFORMER "Heavendy Breakfast"
INDEX 00 08:06:02
FILE "06 Death Pledge.wav" WAVE
INDEX 01 00:00:00
TRACK 07 AUDIO
TITLE "Glenn`s Conducting"
PERFORMER "Heavendy Breakfast"
INDEX 00 09:06:66
FILE "07 Glenn`s Conducting.wav" WAVE
INDEX 01 00:00:00
 
Состав
B. Friedman - trumpet
L. Johnston - sax, clarinets
E. Beezhold - el. piano, Korg ms 20000
D. Krimm - bass
Rich West - drums, accordion, pieces
Другие раздачи
http://rutracker.org/forum/search.php?uid=17163016
Any questions -> support@pro-jazz.com. По всем вопросам пишите -> support@pro-jazz.com
22:09
151
Нет комментариев. Ваш будет первым!