Вы используете незарегистрированную версию компонента "Вкладки"!

Поиск

(Avant-garde, Free Improvisation) Elliott Sharp & Frank Vigroux - Hums 2 Terre - 2007, FLAC (tracks+.cue), lossless

(Avant-garde, Free Improvisation) Elliott Sharp & Frank Vigroux - Hums 2 Terre - 2007, FLAC (tracks+.cue), lossless
Треклист:
Elliott Sharp & Frank Vigroux / Hums 2 Terre
Жанр: Avant-garde, Free Improvisation
Страна-производитель диска: France
Год издания диска: 2007
Издатель (лейбл): Signature
Номер по каталогу: SIG 11040
Аудиокодек: FLAC (*.flac)
Тип рипа: tracks+.cue
Битрейт аудио: lossless
Продолжительность: 44:50
Источник (релизер): whatcd/Ludovico
Наличие сканов в содержимом раздачи: нет
Треклист:
1 Cheval De Frise 5:26
2 Contrario 2:50
3 Sebald 6:05
4 Earth Lift 4:14
5 Bétonniere 1:21
6 Fatal Error 5:06
7 Hun De Terre 6:52
8 On The Bang 2:41
9 Bang Sang Hang 4:07
10 No Such Object 5:31
Recorded at Radio France, May 11 & December 9 2006.
 
Лог создания рипа
Exact Audio Copy V1.0 beta 3 from 29. August 2011
EAC extraction logfile from 10. January 2012, 23:03
Franck Vigroux, Elliott Sharp / Hums 2 Terre
Used drive : TSSTcorpCDDVDW SE-S084F Adapter: 4 ID: 0
Read mode : Secure
Utilize accurate stream : Yes
Defeat audio cache : Yes
Make use of C2 pointers : No
Read offset correction : 6
Overread into Lead-In and Lead-Out : No
Fill up missing offset samples with silence : Yes
Delete leading and trailing silent blocks : No
Null samples used in CRC calculations : Yes
Used interface : Installed external ASPI interface
Gap handling : Appended to previous track
Used output format : User Defined Encoder
Selected bitrate : 1024 kBit/s
Quality : High
Add ID3 tag : Yes
Command line compressor : C:\Program Files\Exact Audio Copy\FLAC\FLAC.EXE
Additional command line options : -8 -V -T "ARTIST=%artist%" -T "TITLE=%title%" -T "ALBUM=%albumtitle%" -T "DATE=%year%" -T "TRACKNUMBER=%tracknr%" -T "GENRE=%genre%" -T "PERFORMER=%albuminterpret%" -T "COMPOSER=%composer%" %haslyrics%--tag-from-file=LYRICS="%lyricsfile%"%haslyrics% -T "ALBUMARTIST=%albumartist%" -T "DISCNUMBER=%cdnumber%" -T "TOTALDISCS=%totalcds%" -T "TOTALTRACKS=%numtracks%" -T "COMMENT=%comment%" %source% -o %dest%
TOC of the extracted CD
Track | Start | Length | Start sector | End sector
---------------------------------------------------------
1 | 0:00.00 | 5:28.35 | 0 | 24634
2 | 5:28.35 | 2:53.00 | 24635 | 37609
3 | 8:21.35 | 6:10.00 | 37610 | 65359
4 | 14:31.35 | 4:17.72 | 65360 | 84706
5 | 18:49.32 | 1:24.04 | 84707 | 91010
6 | 20:13.36 | 5:10.72 | 91011 | 114332
7 | 25:24.33 | 6:57.04 | 114333 | 145611
8 | 32:21.37 | 2:45.04 | 145612 | 157990
9 | 35:06.41 | 4:12.00 | 157991 | 176890
10 | 39:18.41 | 5:31.71 | 176891 | 201786
Track 1
Filename Z:\Musique Flac\médiathèque\Franck Vigroux, Elliott Sharp - Hums 2 Terre\1 - Cheval De Frise.wav
Pre-gap length 0:00:02.00
Peak level 98.8 %
Extraction speed 1.4 X
Track quality 100.0 %
Test CRC 5B0328EF
Copy CRC 5B0328EF
Track not present in AccurateRip database
Copy OK
Track 2
Filename Z:\Musique Flac\médiathèque\Franck Vigroux, Elliott Sharp - Hums 2 Terre\2 - Contrario.wav
Pre-gap length 0:00:01.78
Peak level 98.8 %
Extraction speed 1.2 X
Track quality 99.9 %
Test CRC C322FF35
Copy CRC C322FF35
Track not present in AccurateRip database
Copy OK
Track 3
Filename Z:\Musique Flac\médiathèque\Franck Vigroux, Elliott Sharp - Hums 2 Terre\3 - Sebald.wav
Pre-gap length 0:00:02.76
Peak level 98.8 %
Extraction speed 1.4 X
Track quality 100.0 %
Test CRC 23003097
Copy CRC 23003097
Track not present in AccurateRip database
Copy OK
Track 4
Filename Z:\Musique Flac\médiathèque\Franck Vigroux, Elliott Sharp - Hums 2 Terre\4 - Earth Lift.wav
Pre-gap length 0:00:04.41
Peak level 91.6 %
Extraction speed 1.4 X
Track quality 99.9 %
Test CRC 6D8EA595
Copy CRC 6D8EA595
Track not present in AccurateRip database
Copy OK
Track 5
Filename Z:\Musique Flac\médiathèque\Franck Vigroux, Elliott Sharp - Hums 2 Terre\5 - Betonniere.wav
Pre-gap length 0:00:03.01
Peak level 98.8 %
Extraction speed 1.3 X
Track quality 100.0 %
Test CRC 19FC233B
Copy CRC 19FC233B
Track not present in AccurateRip database
Copy OK
Track 6
Filename Z:\Musique Flac\médiathèque\Franck Vigroux, Elliott Sharp - Hums 2 Terre\6 - Fatal Error.wav
Pre-gap length 0:00:02.22
Peak level 100.0 %
Extraction speed 1.8 X
Track quality 100.0 %
Test CRC C79D691E
Copy CRC C79D691E
Track not present in AccurateRip database
Copy OK
Track 7
Filename Z:\Musique Flac\médiathèque\Franck Vigroux, Elliott Sharp - Hums 2 Terre\7 - Hum De Terre.wav
Pre-gap length 0:00:04.14
Peak level 100.0 %
Extraction speed 2.2 X
Track quality 100.0 %
Test CRC 29E4D672
Copy CRC 29E4D672
Track not present in AccurateRip database
Copy OK
Track 8
Filename Z:\Musique Flac\médiathèque\Franck Vigroux, Elliott Sharp - Hums 2 Terre\8 - On the Bang.wav
Pre-gap length 0:00:04.18
Peak level 98.8 %
Extraction speed 2.4 X
Track quality 100.0 %
Test CRC D2FD233B
Copy CRC D2FD233B
Track not present in AccurateRip database
Copy OK
Track 9
Filename Z:\Musique Flac\médiathèque\Franck Vigroux, Elliott Sharp - Hums 2 Terre\9 - Bang Sang Hang.wav
Pre-gap length 0:00:03.98
Peak level 96.1 %
Extraction speed 2.8 X
Track quality 99.9 %
Test CRC ABB88DD6
Copy CRC ABB88DD6
Track not present in AccurateRip database
Copy OK
Track 10
Filename Z:\Musique Flac\médiathèque\Franck Vigroux, Elliott Sharp - Hums 2 Terre\10 - No Such Object.wav
Pre-gap length 0:00:04.86
Peak level 100.0 %
Extraction speed 3.8 X
Track quality 100.0 %
Test CRC AB7CC914
Copy CRC AB7CC914
Track not present in AccurateRip database
Copy OK
None of the tracks are present in the AccurateRip database
No errors occurred
End of status report
==== Log checksum CA4A6D1B4B5B4D0D0D39549FF05AE50F3969F7610DD5D0D33481116C7F853F64 ====
 
Содержание индексной карты (.CUE)
REM GENRE Jazz
REM DATE 2007
REM DISCID 660A820A
REM COMMENT "ExactAudioCopy v1.0b3"
PERFORMER "Franck Vigroux, Elliott Sharp"
TITLE "Hums 2 Terre"
FILE "1 - Cheval De Frise.flac" WAVE
TRACK 01 AUDIO
TITLE "Cheval De Frise"
PERFORMER "Franck Vigroux, Elliott Sharp"
ISRC FR05G0750040
FLAGS DCP
INDEX 01 00:00:00
TRACK 02 AUDIO
TITLE "Contrario"
PERFORMER "Franck Vigroux, Elliott Sharp"
ISRC FR05G0750041
FLAGS DCP
INDEX 00 05:26:51
FILE "2 - Contrario.flac" WAVE
INDEX 01 00:00:00
TRACK 03 AUDIO
TITLE "Sebald"
PERFORMER "Franck Vigroux, Elliott Sharp"
ISRC FR05G0750042
FLAGS DCP
INDEX 00 02:50:18
FILE "3 - Sebald.flac" WAVE
INDEX 01 00:00:00
TRACK 04 AUDIO
TITLE "Earth Lift"
PERFORMER "Franck Vigroux, Elliott Sharp"
ISRC FR05G0750043
FLAGS DCP
INDEX 00 06:05:44
FILE "4 - Earth Lift.flac" WAVE
INDEX 01 00:00:00
TRACK 05 AUDIO
TITLE "Betonniere"
PERFORMER "Franck Vigroux, Elliott Sharp"
ISRC FR05G0750044
FLAGS DCP
INDEX 00 04:14:71
FILE "5 - Betonniere.flac" WAVE
INDEX 01 00:00:00
TRACK 06 AUDIO
TITLE "Fatal Error"
PERFORMER "Franck Vigroux, Elliott Sharp"
ISRC FR05G0750045
FLAGS DCP
INDEX 00 01:21:62
FILE "6 - Fatal Error.flac" WAVE
INDEX 01 00:00:00
TRACK 07 AUDIO
TITLE "Hum De Terre"
PERFORMER "Franck Vigroux, Elliott Sharp"
ISRC FR05G0750046
FLAGS DCP
INDEX 00 05:06:61
FILE "7 - Hum De Terre.flac" WAVE
INDEX 01 00:00:00
TRACK 08 AUDIO
TITLE "On the Bang"
PERFORMER "Franck Vigroux, Elliott Sharp"
ISRC FR05G0750047
FLAGS DCP
INDEX 00 06:52:65
FILE "8 - On the Bang.flac" WAVE
INDEX 01 00:00:00
TRACK 09 AUDIO
TITLE "Bang Sang Hang"
PERFORMER "Franck Vigroux, Elliott Sharp"
ISRC FR05G0750048
FLAGS DCP
INDEX 00 02:41:05
FILE "9 - Bang Sang Hang.flac" WAVE
INDEX 01 00:00:00
TRACK 10 AUDIO
TITLE "No Such Object"
PERFORMER "Franck Vigroux, Elliott Sharp"
ISRC FR05G0750049
FLAGS DCP
INDEX 00 04:07:10
FILE "10 - No Such Object.flac" WAVE
INDEX 01 00:00:00
 
Об альбоме (сборнике)
Partant d’une instrumentation et d’une écriture très nettement free oriented, Frank Vigroux et Elliott Sharp, en conjuguant leurs compétences de guitaristes, vont s’employer pendant une petite heure à tracer le cercle d’une pratique originale et qui défie les appellations.
On trouve dans ce disque, sûrement, le fantasme d’une musique ramenée à ses fondamentaux : le hum désignant le bruit de fond des amplis, tandis que le titre Hums 2 Terre suggère à l’oreille hommes de terre. Manière de dire que la musique, c’est du langage, certes, mais aussi du bruit blanc, de la matière sonore brute et sale. Voilà quelques principes pour nous guider au milieu de ces dix compositions qui se parent, au moins au début, d’atours bruitistes ou chaotiques et se révèlent dès l’abord redoutablement labyrinthiques : soigneusement organisées, mais sur des structures déroutantes, apparemment mesurées mais pleines de pièges et de surprises, comme ces baisses subites de volume sur « Hum de Terre » et « Earth Lift », ou ces déflagrations de percussions sur « On The Bang ».
Musique ramenée à ses fondamentaux, mais pas minimaliste pour autant puisque les sonorités foisonnent ici, plurielles : il s’agit plutôt, à l’aide de quelques instruments sélectionnés et agencés avec soin, de se tenir sur la ligne de crête, très fine, qui sépare la musique du son – ou plutôt, puisque cette distinction n’a pas grand sens, de trouver un équilibre entre bruitisme et écriture tout en faisant en sorte qu’ils se ravivent mutuellement et en permanence. Avec deux guitares, un saxophone, un piano et divers outils électroniques et/ou informatiques, Sharp et Vigroux confectionnent des objets électro-acoustiques denses, déroutants, qui mêlent parfois en une même poignée de secondes rythmiques programmées, montages sonores abrupts, distorsions électriques et bricolages électroniques pointus.
Objet fuyant et paradoxal que ce Hums 2 Terre, donc, qui déborde d’une électricité qu’on dirait volontiers post-punk, en même temps qu’il chasse sur les terres du field recording ou d’une musique plus ambient, par exemple en faisant intervenir à plusieurs reprises des voix d’hommes enregistrées comme sur le vif « Bang Shang Hang » et en explorant avec constance le goût de l’arythmie de Sharp ainsi que la propension à la mélancolie de Vigroux. On n’en louera que davantage cet excellent enregistrement qui s’oppose à toute idée de conformation à un genre ou à une règle pour mieux inventer, dans la pratique, le territoire singulier d’une musique intense et originale.
 
Состав
Guitar, Reeds, Piano, Electronics, Computer – Elliott Sharp
Guitar, Turntables, Keyboards, Electronics [Minidisc] – Franck Vigroux
Any questions -> support@pro-jazz.com. По всем вопросам пишите -> support@pro-jazz.com
22:07
141
Нет комментариев. Ваш будет первым!