Вы используете незарегистрированную версию компонента "Вкладки"!

Поиск

(Avant-Garde, Ethnic, Free-Jazz) Ned Rothenberg - Ryu Nashi / No School [Tzadik 7267] - 2010, FLAC (image+.cue), lossless

(Avant-Garde, Ethnic, Free-Jazz) Ned Rothenberg - Ryu Nashi / No School [Tzadik 7267] - 2010, FLAC (image+.cue), lossless
Треклист:
Ned Rothenberg / Ryu Nashi / No School Жанр: Avant-Garde, Ethnic, Free-Jazz
Страна-производитель диска: US
Год издания диска: Mar 2010
Издатель (лейбл): Tzadik
Номер по каталогу: 7267
Страна: US
Аудиокодек: FLAC (*.flac)
Тип рипа: image+.cue
Битрейт аудио: lossless
Продолжительность: 00:54:55
Источник (релизер): nnm.ru (док Decadence)
Наличие сканов в содержимом раздачи: да
Треклист:
1. Emergent Vessel
2. naki tokoro nite (Where There is Neither)
3. Dan no Tabi (Journey on a Staircase)
4. Shadow Detail
5. Cloud Hands
 
Лог создания рипа
Exact Audio Copy V1.0 beta 3 from 29. August 2011
Отчёт EAC об извлечении, выполненном 15. февраля 2012, 21:32
Ned Rothenberg / Ryu Nashi | No School
Дисковод: Optiarc DVD RW AD-5260S Adapter: 1 ID: 1
Режим чтения : Достоверность
Использование точного потока : Да
Отключение кэша аудио : Да
Использование указателей C2 : Нет
Коррекция смещения при чтении : 48
Способность читать области Lead-in и Lead-out : Нет
Заполнение пропущенных сэмплов тишиной : Да
Удаление блоков с тишиной в начале и конце : Нет
При вычислениях CRC использовались нулевые сэмплы : Да
Интерфейс : Встроенный Win32-интерфейс для Win NT/2000
Выходной формат : Пользовательский кодировщик
Выбранный битрейт : 768 kBit/s
Качество : Высокий
Добавление ID3-тега : Нет
Утилита сжатия : J:\Program Files (x86)\Exact Audio Copy\FLAC\FLAC.EXE
Дополнительные параметры : -6 -V -T "ARTIST=%artist%" -T "TITLE=%title%" -T "ALBUM=%albumtitle%" -T "DATE=%year%" -T "TRACKNUMBER=%tracknr%" -T "GENRE=%genre%" -T "COMMENT=%comment%" -T "BAND=%albuminterpret%" -T "ALBUMARTIST=%albuminterpret%" -T "COMPOSER=%composer%" %haslyrics%--tag-from-file=LYRICS="%lyricsfile%"%haslyrics% -T "DISCNUMBER=%cdnumber%" -T "TOTALDISCS=%totalcds%" -T "TOTALTRACKS=%numtracks%" %hascover%--picture="%coverfile%"%hascover% %source% -o %dest%
TOC извлечённого CD
Трек | Старт | Длительность | Начальный сектор | Конечный сектор
---------------------------------------------------------------------
1 | 0:00.00 | 5:22.03 | 0 | 24152
2 | 5:22.03 | 12:26.04 | 24153 | 80106
3 | 17:48.07 | 22:44.51 | 80107 | 182457
4 | 40:32.58 | 5:49.12 | 182458 | 208644
5 | 46:21.70 | 8:40.39 | 208645 | 247683
Характеристики диапазона извлечения и сообщения об ошибках
Выбранный диапазон
Имя файла C:\Decadence\Ned Rothenberg\Ned Rothenberg - Ryu Nashi ! No School\Ned Rothenberg - Ryu Nashi ! No School.wav
Пиковый уровень 92.8 %
Скорость извлечения 3.9 X
Качество диапазона 100.0 %
CRC теста D030F34D
CRC копии D030F34D
Копирование... OK
Ошибок не произошло
AccurateRip: сводка
Трек 1 отсутствует в базе данных
Трек 2 отсутствует в базе данных
Трек 3 отсутствует в базе данных
Трек 4 отсутствует в базе данных
Трек 5 отсутствует в базе данных
Ни одного трека нет в базе AccurateRip
Конец отчёта
 
Лог проверки качества
-----------------------
DON'T MODIFY THIS FILE
-----------------------
PERFORMER: auCDtect Task Manager, ver. 1.5.1RC6 build 1.5.1.7
Copyright (c) 2008-2010 y-soft. All rights reserved
http://y-soft.org
ANALYZER: auCDtect: CD records authenticity detector, version 0.8.2
Copyright (c) 2004 Oleg Berngardt. All rights reserved.
Copyright (c) 2004 Alexander Djourik. All rights reserved.
FILE: Ned Rothenberg - Ryu Nashi ! No School.flac
Size: 237474856 Hash: E67BDDE6E5BE1930612203D79CDA746B Accuracy: -m0
Conclusion: CDDA 100%
Signature: 42C0D03CFD811A04D0EADC94EB54AB61D7B14EED
 
Скриншот спектра частот
 
Состав
Riley Lee: Shakuhachi
Ned Rothenberg: Shakuhachi
Stephanie Griffin: Viola
Yoko Hiraoka: Jiuta Shamisen, Voice
Ralph Samuelson: Shakuhachi
Any questions -> support@pro-jazz.com. По всем вопросам пишите -> support@pro-jazz.com
22:07
138
Нет комментариев. Ваш будет первым!