Вы используете незарегистрированную версию компонента "Вкладки"!

Поиск

(Avant-Garde Jazz, Free Improvisation) Franz Koglmann - Orte Der Geometrie - 1989, APE (tracks+.cue), lossless

(Avant-Garde Jazz, Free Improvisation) Franz Koglmann - Orte Der Geometrie - 1989, APE (tracks+.cue), lossless
Треклист:
•Franz Koglmann - Orte Der Geometrie•
Жанр: Avant-Garde Jazz, Free Improvisation
Страна-производитель диска: Switzerland
Год издания: 1989
Издатель (лейбл): hat ART
Номер по каталогу: CD 6018
Аудиокодек: APE (*.ape)
Тип рипа: tracks+.cue
Битрейт аудио: lossless
Продолжительность: 01:04:18
Источник (релизер): Рип с диска.
Наличие сканов в содержимом раздачи: да
Треклист:
01. The Banker's [04:34]
02. Slow Fox [04:35]
03. Quotations [06:38]
04. Der Gast [04:16]
05. In Between [06:43]
06. Der Vogel [03:47]
07. Orte Der Geometrie [03:23]
08. Israel [04:39]
09. Es Rinnt Aus Dem Hirn [04:07]
10. Afterglow [07:10]
11. Die Schritte [02:36]
12. The Short Life of Barbara Monk [11:50]
Personnel:
Klaus Koch - b (1, 2, 4, 6, 9, 11, 12)
Martin Schelling - cl (1, 2, 4, 5, 9, 11, 12)
Fritz Hauser - dr (1, 2, 4, 8, 9, 11, 12)
Franz Koglmann - flh (1 to 4, 6 to 12)
Jean-Christophe Mastnak - French Horn (1, 2, 4, 9, 11, 12)
Burkhard Stangl - g (1, 2, 4, 5, 8, 9, 11, 12)
Mario Arcari - Oboe (1, 2, 4, 8, 9, 11, 12)
Ran Blake - p (1, 2, 4, 5, 9, 11, 12)
Robert Michael Weiss - p (1, 2, 4, 9, 11, 12)
Guillermo Gregorio - as (1, 2, 4 to 6, 9, 11, 12)
Roberto Ottaviano - ss (1, 2, 4, 5, 8, 9, 11, 12)
Rudolf Ruschel - tb (1 to 4, 9 to 12)
Raoul Herget - Tuba (1 to 4, 9 to 12)Recorded on November 14-18, 1988 at Haus der Begegnung Mariahilf, Vienna/Austria.
 
Лог создания рипа
Exact Audio Copy V1.0 beta 3 from 29. August 2011
Отчёт EAC об извлечении, выполненном 5. августа 2012, 22:01
Franz Koglmann / Orte Der Geometrie
Дисковод: Optiarc DVD RW AD-5200A Adapter: 0 ID: 0
Режим чтения : Достоверность
Использование точного потока : Да
Отключение кэша аудио : Да
Использование указателей C2 : Нет
Коррекция смещения при чтении : 48
Способность читать области Lead-in и Lead-out : Нет
Заполнение пропущенных сэмплов тишиной : Да
Удаление блоков с тишиной в начале и конце : Нет
При вычислениях CRC использовались нулевые сэмплы : Да
Интерфейс : Встроенный Win32-интерфейс для Win NT/2000
Обработка зазоров : Добавлено к предыдущему треку
Выходной формат : Пользовательский кодировщик
Выбранный битрейт : 128 kBit/s
Качество : Высокий
Добавление ID3-тега : Нет
Утилита сжатия : F:\Program Files\Monkey's Audio\wapet.exe
Дополнительные параметры : %dest% -t "Genre=%genre%" -t "Artist=%artist%" -t "Title=%title%" -t "Album=%albumtitle%" -t "Year=%year%" -t "Track=%tracknr%" -t "Comment=%comment%" mac.exe %source% %dest% -c3000
TOC извлечённого CD
Трек | Старт | Длительность | Начальный сектор | Конечный сектор
---------------------------------------------------------------------
1 | 0:00.00 | 4:34.62 | 0 | 20611
2 | 4:34.62 | 4:35.00 | 20612 | 41236
3 | 9:09.62 | 6:38.00 | 41237 | 71086
4 | 15:47.62 | 4:16.00 | 71087 | 90286
5 | 20:03.62 | 6:43.00 | 90287 | 120511
6 | 26:46.62 | 3:47.00 | 120512 | 137536
7 | 30:33.62 | 3:23.00 | 137537 | 152761
8 | 33:56.62 | 4:39.00 | 152762 | 173686
9 | 38:35.62 | 4:07.00 | 173687 | 192211
10 | 42:42.62 | 7:10.00 | 192212 | 224461
11 | 49:52.62 | 2:36.00 | 224462 | 236161
12 | 52:28.62 | 11:50.13 | 236162 | 289424
Трек 1
Имя файла F:\1989.Franz Koglmann - Orte Der Geometrie\01. The Banker's.wav
Длина предзазора 0:00:02.00
Пиковый уровень 100.0 %
Скорость извлечения 2.5 X
Качество трека 100.0 %
CRC теста 7842DBB7
CRC копии 7842DBB7
Точное извлечение (достоверность 1) [72F25649] (AR v1)
Копирование... OK
Трек 2
Имя файла F:\1989.Franz Koglmann - Orte Der Geometrie\02. Slow Fox.wav
Длина предзазора 0:00:04.37
Пиковый уровень 95.9 %
Скорость извлечения 2.6 X
Качество трека 100.0 %
CRC теста D46406C8
CRC копии D46406C8
Точное извлечение (достоверность 1) [3D24C4AB] (AR v1)
Копирование... OK
Трек 3
Имя файла F:\1989.Franz Koglmann - Orte Der Geometrie\03. Quotations.wav
Длина предзазора 0:00:05.20
Пиковый уровень 56.6 %
Скорость извлечения 3.1 X
Качество трека 100.0 %
CRC теста 7C26A660
CRC копии 7C26A660
Точное извлечение (достоверность 1) [4970D590] (AR v1)
Копирование... OK
Трек 4
Имя файла F:\1989.Franz Koglmann - Orte Der Geometrie\04. Der Gast.wav
Длина предзазора 0:00:04.22
Пиковый уровень 82.0 %
Скорость извлечения 3.2 X
Качество трека 100.0 %
CRC теста 6CAB22AE
CRC копии 6CAB22AE
Точное извлечение (достоверность 1) [B3DFC17B] (AR v1)
Копирование... OK
Трек 5
Имя файла F:\1989.Franz Koglmann - Orte Der Geometrie\05. In Between.wav
Длина предзазора 0:00:04.63
Пиковый уровень 97.2 %
Скорость извлечения 3.6 X
Качество трека 100.0 %
CRC теста 8835D1EA
CRC копии 8835D1EA
Точное извлечение (достоверность 1) [C9A23E70] (AR v1)
Копирование... OK
Трек 6
Имя файла F:\1989.Franz Koglmann - Orte Der Geometrie\06. Der Vogel.wav
Длина предзазора 0:00:04.62
Пиковый уровень 47.4 %
Скорость извлечения 3.4 X
Качество трека 100.0 %
CRC теста 153C6025
CRC копии 153C6025
Точное извлечение (достоверность 1) [F96D6048] (AR v1)
Копирование... OK
Трек 7
Имя файла F:\1989.Franz Koglmann - Orte Der Geometrie\07. Orte Der Geometrie.wav
Длина предзазора 0:00:04.62
Пиковый уровень 65.9 %
Скорость извлечения 3.4 X
Качество трека 100.0 %
CRC теста BA137DE1
CRC копии BA137DE1
Точное извлечение (достоверность 1) [BC7BE66E] (AR v1)
Копирование... OK
Трек 8
Имя файла F:\1989.Franz Koglmann - Orte Der Geometrie\08. Israel.wav
Длина предзазора 0:00:04.30
Пиковый уровень 94.8 %
Скорость извлечения 3.8 X
Качество трека 100.0 %
CRC теста 20AAF554
CRC копии 20AAF554
Точное извлечение (достоверность 1) [A7FEFCC5] (AR v1)
Копирование... OK
Трек 9
Имя файла F:\1989.Franz Koglmann - Orte Der Geometrie\09. Es Rinnt Aus Dem Hirn.wav
Длина предзазора 0:00:04.25
Пиковый уровень 95.1 %
Скорость извлечения 3.4 X
Качество трека 99.9 %
CRC теста 7734653C
CRC копии 7734653C
Точное извлечение (достоверность 1) [A1DF5EE7] (AR v1)
Копирование... OK
Трек 10
Имя файла F:\1989.Franz Koglmann - Orte Der Geometrie\10. Afterglow.wav
Длина предзазора 0:00:04.62
Пиковый уровень 61.5 %
Скорость извлечения 4.1 X
Качество трека 100.0 %
CRC теста B8883D4D
CRC копии B8883D4D
Точное извлечение (достоверность 1) [8CCCEF69] (AR v1)
Копирование... OK
Трек 11
Имя файла F:\1989.Franz Koglmann - Orte Der Geometrie\11. Die Schritte.wav
Длина предзазора 0:00:04.62
Пиковый уровень 61.2 %
Скорость извлечения 3.3 X
Качество трека 99.9 %
CRC теста 108815DF
CRC копии 108815DF
Точное извлечение (достоверность 1) [EEBDE55C] (AR v1)
Копирование... OK
Трек 12
Имя файла F:\1989.Franz Koglmann - Orte Der Geometrie\12. The Short Life of Barbara Monk.wav
Длина предзазора 0:00:04.38
Пиковый уровень 97.2 %
Скорость извлечения 4.5 X
Качество трека 99.9 %
CRC теста 8013BB6A
CRC копии 8013BB6A
Точное извлечение (достоверность 1) [3ECBDF8B] (AR v1)
Копирование... OK
Все треки извлечены точно
Ошибок не произошло
Конец отчёта
==== Контрольная сумма отчёта 1AF2BD864C069C3DCBDB57F5A1C7B6B320C62E462179E5B0E8FF3497CD0D5B78 ====
 
Содержание индексной карты (.CUE)
REM GENRE Avantgarde
REM DATE 1989
REM DISCID A60F130C
REM COMMENT "ExactAudioCopy v1.0b3"
PERFORMER "Franz Koglmann"
TITLE "Orte Der Geometrie"
FILE "01. The Banker's.wav" WAVE
TRACK 01 AUDIO
TITLE "The Banker's"
PERFORMER "Franz Koglmann"
INDEX 01 00:00:00
TRACK 02 AUDIO
TITLE "Slow Fox"
PERFORMER "Franz Koglmann"
INDEX 00 04:30:25
FILE "02. Slow Fox.wav" WAVE
INDEX 01 00:00:00
TRACK 03 AUDIO
TITLE "Quotations"
PERFORMER "Franz Koglmann"
INDEX 00 04:29:55
FILE "03. Quotations.wav" WAVE
INDEX 01 00:00:00
TRACK 04 AUDIO
TITLE "Der Gast"
PERFORMER "Franz Koglmann"
INDEX 00 06:33:53
FILE "04. Der Gast.wav" WAVE
INDEX 01 00:00:00
TRACK 05 AUDIO
TITLE "In Between"
PERFORMER "Franz Koglmann"
INDEX 00 04:11:12
FILE "05. In Between.wav" WAVE
INDEX 01 00:00:00
TRACK 06 AUDIO
TITLE "Der Vogel"
PERFORMER "Franz Koglmann"
INDEX 00 06:38:13
FILE "06. Der Vogel.wav" WAVE
INDEX 01 00:00:00
TRACK 07 AUDIO
TITLE "Orte Der Geometrie"
PERFORMER "Franz Koglmann"
INDEX 00 03:42:13
FILE "07. Orte Der Geometrie.wav" WAVE
INDEX 01 00:00:00
TRACK 08 AUDIO
TITLE "Israel"
PERFORMER "Franz Koglmann"
INDEX 00 03:18:45
FILE "08. Israel.wav" WAVE
INDEX 01 00:00:00
TRACK 09 AUDIO
TITLE "Es Rinnt Aus Dem Hirn"
PERFORMER "Franz Koglmann"
INDEX 00 04:34:50
FILE "09. Es Rinnt Aus Dem Hirn.wav" WAVE
INDEX 01 00:00:00
TRACK 10 AUDIO
TITLE "Afterglow"
PERFORMER "Franz Koglmann"
INDEX 00 04:02:13
FILE "10. Afterglow.wav" WAVE
INDEX 01 00:00:00
TRACK 11 AUDIO
TITLE "Die Schritte"
PERFORMER "Franz Koglmann"
INDEX 00 07:05:13
FILE "11. Die Schritte.wav" WAVE
INDEX 01 00:00:00
TRACK 12 AUDIO
TITLE "The Short Life of Barbara Monk"
PERFORMER "Franz Koglmann"
INDEX 00 02:31:37
FILE "12. The Short Life of Barbara Monk.wav" WAVE
INDEX 01 00:00:00
По всем вопросам пишите личное сообщение пользователю M0p94ok.
02:53
397
Нет комментариев. Ваш будет первым!