Вы используете незарегистрированную версию компонента "Вкладки"!

Поиск

(Avant-Garde Jazz, Free Improvisation) George Lewis & Douglas Ewart - Jila • Save! Mon • The Imaginary Suite - 1978, FLAC (tracks+.cue), lossless

(Avant-Garde Jazz, Free Improvisation) George Lewis & Douglas Ewart - Jila • Save! Mon • The Imaginary Suite - 1978, FLAC (tracks+.cue), lossless
Треклист:
George Lewis & Douglas Ewart - Jila • Save! Mon • The Imaginary Suite
Жанр: Avant-Garde Jazz, Free Improvisation
Страна-производитель диска: Italy
Год издания: 1978
Издатель (лейбл): Black Saint
Номер по каталогу: 120026-2
Аудиокодек: FLAC (*.flac)
Тип рипа: tracks+.cue
Битрейт аудио: lossless
Продолжительность: 00:40:43
Источник (релизер): mishka1981
Наличие сканов в содержимом раздачи: да
Треклист:
01.Jila [06:42]
02.Save! Mon. [12:27]
03.The Imaginary Suite-Charon [09:09]
04.The Imaginary Suite-The Phoenix [12:23]
Personnel:
George Lewis (tb)
Douglas Ewart (fl, as, bcl)
 
Лог создания рипа
Exact Audio Copy V1.0 beta 1 from 15. November 2010
EAC extraction logfile from 5. August 2012, 13:38
George Lewis-Douglas Ewart / Jila
Used drive : Optiarc DVD RW AD-7710H Adapter: 1 ID: 0
Read mode : Secure
Utilize accurate stream : Yes
Defeat audio cache : Yes
Make use of C2 pointers : No
Read offset correction : 48
Overread into Lead-In and Lead-Out : No
Fill up missing offset samples with silence : Yes
Delete leading and trailing silent blocks : No
Null samples used in CRC calculations : Yes
Used interface : Native Win32 interface for Win NT & 2000
Gap handling : Appended to previous track
Used output format : User Defined Encoder
Selected bitrate : 896 kBit/s
Quality : High
Add ID3 tag : No
Command line compressor : C:\Program Files\Exact Audio Copy\FLAC\FLAC.EXE
Additional command line options : -8 -V -T "ARTIST=%a" -T "TITLE=%t" -T "ALBUM=%g" -T "DATE=%y" -T "TRACKNUMBER=%n" -T "GENRE=%m" -T "COMMENT=%e" %j--picture="%i"%j %s -o %d
TOC of the extracted CD
Track | Start | Length | Start sector | End sector
---------------------------------------------------------
1 | 0:00.00 | 6:42.00 | 0 | 30149
2 | 6:42.00 | 12:27.50 | 30150 | 86224
3 | 19:09.50 | 9:09.42 | 86225 | 127441
4 | 28:19.17 | 12:23.60 | 127442 | 183226
Track 1
Filename C:\MY RIPS\01 - Jila.wav
Pre-gap length 0:00:02.00
Peak level 72.8 %
Extraction speed 3.0 X
Track quality 100.0 %
Test CRC 62548E4F
Copy CRC 62548E4F
Accurately ripped (confidence 2) [3D5577FE]
Copy OK
Track 2
Filename C:\MY RIPS\02 - Save! Mon..wav
Pre-gap length 0:00:02.15
Peak level 67.5 %
Extraction speed 3.8 X
Track quality 100.0 %
Test CRC B3AFCBB2
Copy CRC B3AFCBB2
Accurately ripped (confidence 2) [A68D4A2D]
Copy OK
Track 3
Filename C:\MY RIPS\03 - The Imaginary Suite-Charon.wav
Pre-gap length 0:00:02.15
Peak level 64.1 %
Extraction speed 4.1 X
Track quality 99.9 %
Test CRC C6DE2046
Copy CRC C6DE2046
Accurately ripped (confidence 2) [D6DB7CF6]
Copy OK
Track 4
Filename C:\MY RIPS\04 - The Imaginary Suite-The Phoenix.wav
Pre-gap length 0:00:02.17
Peak level 71.1 %
Extraction speed 0.9 X
Track quality 100.0 %
Test CRC CBAAD076
Copy CRC CBAAD076
Accurately ripped (confidence 2) [53297926]
Copy OK
All tracks accurately ripped
No errors occurred
End of status report
==== Log checksum E5B756D4F2940A66A25F0C2997F6F27350E9637EA623CEA7CF77B8370665807F ====
 
Содержание индексной карты (.CUE)
REM GENRE Jazz
REM DATE 1979
REM DISCID 1B098B04
REM COMMENT "ExactAudioCopy v1.0b1"
PERFORMER "George Lewis-Douglas Ewart"
TITLE "Jila"
FILE "01 - Jila.wav" WAVE
TRACK 01 AUDIO
TITLE "Jila"
PERFORMER "George Lewis-Douglas Ewart"
INDEX 01 00:00:00
TRACK 02 AUDIO
TITLE "Save! Mon."
PERFORMER "George Lewis-Douglas Ewart"
INDEX 00 06:39:60
FILE "02 - Save! Mon..wav" WAVE
INDEX 01 00:00:00
TRACK 03 AUDIO
TITLE "The Imaginary Suite-Charon"
PERFORMER "George Lewis-Douglas Ewart"
INDEX 00 12:25:35
FILE "03 - The Imaginary Suite-Charon.wav" WAVE
INDEX 01 00:00:00
TRACK 04 AUDIO
TITLE "The Imaginary Suite-The Phoenix"
PERFORMER "George Lewis-Douglas Ewart"
INDEX 00 09:07:25
FILE "04 - The Imaginary Suite-The Phoenix.wav" WAVE
INDEX 01 00:00:00
Any questions -> support@pro-jazz.com. По всем вопросам пишите -> support@pro-jazz.com
02:52
196
Нет комментариев. Ваш будет первым!