Вы используете незарегистрированную версию компонента "Вкладки"!

Поиск

(Free Jazz, Contemporary Jazz, Free Improvisation) Will Holshouser, Han Bennink & Michael Moore - Live in NYC - 2011, FLAC (image+.cue), lossless

(Free Jazz, Contemporary Jazz, Free Improvisation) Will Holshouser, Han Bennink & Michael Moore - Live in NYC - 2011, FLAC (image+.cue), lossless
Треклист:
Holshouser, Bennink & Moore / Live in NYC
Жанр: Free Jazz, Contemporary Jazz, Free Improvisation
Страна-производитель диска: Netherlands
Год издания: 2011
Издатель (лейбл): Ramboy Recordings
Номер по каталогу: 29
Аудиокодек: FLAC (*.flac)
Тип рипа: image+.cue
Битрейт аудио: lossless
Продолжительность: 44:46
Источник (релизер): cd
Наличие сканов в содержимом раздачи: нет
Треклист:
1. Hararavo Bilo (trad. Madagascar) 5:30
2. Truthiness (HBM)/ Families be so Mean (Moore) 11:45
3. Snowdrift (HBM) 2:09
4. Kerfuf?e (HBM)/ I Never Knew (Kahn & Fiorito) 9:34
5. Bilbao Song (Weill) 7:14
6. Rivulet (HBM)/ Balfa Waltz (Balfa) 8:34
 
Лог создания рипа
Exact Audio Copy V1.0 beta 2 from 29. April 2011
EAC extraction logfile from 7. August 2012, 15:58
Holshouser, Bennink & Moore / Live in NYC
Used drive : Optiarc DVD RW AD-7170A Adapter: 0 ID: 0
Read mode : Secure
Utilize accurate stream : Yes
Defeat audio cache : Yes
Make use of C2 pointers : No
Read offset correction : 48
Overread into Lead-In and Lead-Out : No
Fill up missing offset samples with silence : Yes
Delete leading and trailing silent blocks : No
Null samples used in CRC calculations : Yes
Used interface : Native Win32 interface for Win NT & 2000
Used output format : User Defined Encoder
Selected bitrate : 320 kBit/s
Quality : High
Add ID3 tag : No
Command line compressor : C:\Program Files\Exact Audio Copy\Flac\flac.exe
Additional command line options : -V -8 -T "Date=%year%" -T "Genre=%genre%" %source%
TOC of the extracted CD
Track | Start | Length | Start sector | End sector
---------------------------------------------------------
1 | 0:00.00 | 5:33.71 | 0 | 25045
2 | 5:33.71 | 11:47.48 | 25046 | 78118
3 | 17:21.44 | 2:11.51 | 78119 | 87994
4 | 19:33.20 | 9:35.22 | 87995 | 131141
5 | 29:08.42 | 7:15.12 | 131142 | 163778
6 | 36:23.54 | 8:34.03 | 163779 | 202331
Range status and errors
Selected range
Filename K:\ЕАС\Holshouser, Bennink & Moore - Live in NYC.wav
Peak level 72.0 %
Extraction speed 1.9 X
Range quality 100.0 %
Test CRC 77CF72C5
Copy CRC 77CF72C5
Copy OK
No errors occurred
AccurateRip summary
Track 1 not present in database
Track 2 not present in database
Track 3 not present in database
Track 4 not present in database
Track 5 not present in database
Track 6 not present in database
None of the tracks are present in the AccurateRip database
End of status report
==== Log checksum 52BF570149BD9338BCAD7A0B14E91CD4DD3CCF622747E9AE8CAADE43FA44F912 ====
 
Содержание индексной карты (.CUE)
REM GENRE Jazz
REM DATE 2011
REM DISCID 400A8906
REM COMMENT "ExactAudioCopy v1.0b2"
PERFORMER "Holshouser, Bennink & Moore"
TITLE "Live in NYC"
FILE "Holshouser, Bennink & Moore - Live in NYC.flac" WAVE
TRACK 01 AUDIO
TITLE "Hararavo Bilo"
PERFORMER "Holshouser, Bennink & Moore"
ISRC 000000000000
INDEX 01 00:00:00
TRACK 02 AUDIO
TITLE "Truthiness"
PERFORMER "Holshouser, Bennink & Moore"
ISRC 000000000000
INDEX 00 05:31:71
INDEX 01 05:33:71
TRACK 03 AUDIO
TITLE "Snowdrift"
PERFORMER "Holshouser, Bennink & Moore"
ISRC 000000000000
INDEX 00 17:19:44
INDEX 01 17:21:44
TRACK 04 AUDIO
TITLE "Kerfuffle"
PERFORMER "Holshouser, Bennink & Moore"
ISRC 000000000000
INDEX 00 19:31:20
INDEX 01 19:33:20
TRACK 05 AUDIO
TITLE "Bilbao Song"
PERFORMER "Holshouser, Bennink & Moore"
ISRC 000000000000
INDEX 00 29:06:42
INDEX 01 29:08:42
TRACK 06 AUDIO
TITLE "Rivulet"
PERFORMER "Holshouser, Bennink & Moore"
ISRC 000000000000
INDEX 00 36:21:54
INDEX 01 36:23:54
Доп. информация: Recorded by Daro Behroozi @ Drom, Oct. 25, 2009
 
Об альбоме (сборнике)
"This is indeed a unique trio in different ways: the instrumentation of reeds/accordion/drums is one thing, but the song selection is also something else. Starting with a traditional song from Madagascar, we also get a Kurt Weill cover, a Cajun tune, some Moore originals and a couple of other oddities. Commencing with what sounds like a horror movie soundtrack with eerie accordion and sinister clarinet we are soon sailing into a delightful ethno-groove with Mr. Bennink on infectious swinging brushes and saying "yee-hah!". Mr. Moore sounds like an animal moaning in pain at the beginning of "Truthiness" before the trio hit their stride. Although this trio sounds skeletal at times, they are also rock solid with strong gestures. Han's brushwork (on the snare only mostly) is just incredible. This piece morphs into a blues called "Families Be So Mean" a tough, older sounding ditty with great greasy accordion by Will and a swell twisted clarinet solo from my man Michael. Although "Kerfuffle" starts out rather free in winds up as standard called "I Never Knew" which has that great old-timey sound. This song has been covered by Benny Carter, Erroll Garner & Frank Sinatra. Kurt Weill's "Bilbao Song" gets a fine, smoky, sly, poignant version. The final tune is a Cajun song called "Balfa Waltz" which features some great klez-like clarinet, festive accordion and infectious down-home rhythms. Music like this is guaranteed to make you smile so wise up all you sourpusses and take your medicine."
 
Состав
Michael Moore - clarinet, bass clarinet, alto sax, melodica
Will Holshouser - accordeon
Han Bennink - drums
Any questions -> support@pro-jazz.com. По всем вопросам пишите -> support@pro-jazz.com
02:54
213
Нет комментариев. Ваш будет первым!