Вы используете незарегистрированную версию компонента "Вкладки"!

Поиск

(Avant-Garde Jazz, Free Improvisation) Frank Lowe - Black Beings - 2008, FLAC (tracks+.cue), lossless

(Avant-Garde Jazz, Free Improvisation) Frank Lowe - Black Beings - 2008, FLAC (tracks+.cue), lossless
Треклист:
•Frank Lowe - Black Beings•
Жанр: Avant-Garde Jazz, Free Improvisation
Страна-производитель диска: USA
Год издания диска: 2008
Издатель (лейбл): ESP
Номер по каталогу: 3013
Аудиокодек: FLAC (*.flac)
Тип рипа: tracks+.cue
Битрейт аудио: lossless
Продолжительность: 01:00:21
Источник (релизер): Рип с диска.
Наличие сканов в содержимом раздачи: да
Треклист:
01. In Trane's Name 33:29
02. Brother Joseph 4:46
03. Thulani 22:09
Personnel:
Frank Lowe — ts
Joseph Jarman — as, ss
The Wizard — violin
William Parker — b
Rashied Sinan — drRecorded NYC, March, 1973.
 
Лог создания рипа
Exact Audio Copy V1.0 beta 3 from 29. August 2011
Отчёт EAC об извлечении, выполненном 4. марта 2012, 13:39
Frank Lowe / Black Beings
Дисковод: TSSTcorpCDDVDW SH-S223C Adapter: 5 ID: 0
Режим чтения : Достоверность
Использование точного потока : Да
Отключение кэша аудио : Да
Использование указателей C2 : Нет
Коррекция смещения при чтении : 697
Способность читать области Lead-in и Lead-out : Нет
Заполнение пропущенных сэмплов тишиной : Да
Удаление блоков с тишиной в начале и конце : Нет
При вычислениях CRC использовались нулевые сэмплы : Да
Интерфейс : Встроенный Win32-интерфейс для Win NT/2000
Обработка зазоров : Добавлено к предыдущему треку
Выходной формат : Пользовательский кодировщик
Выбранный битрейт : 128 kBit/s
Качество : Высокий
Добавление ID3-тега : Нет
Утилита сжатия : C:\Program Files\Exact Audio Copy\Flac\flac.exe
Дополнительные параметры : -V -8 -T "Genre=%genre%" -T "Artist=%artist%" -T "Title=%title%" -T "Album=%albumtitle%" -T "Date=%year%" -T "Tracknumber=%tracknr%" -T "Comment=%comment%" %source%
TOC извлечённого CD
Трек | Старт | Длительность | Начальный сектор | Конечный сектор
---------------------------------------------------------------------
1 | 0:00.00 | 33:27.16 | 0 | 150540
2 | 33:27.16 | 4:44.01 | 150541 | 171841
3 | 38:11.17 | 22:10.11 | 171842 | 271602
Трек 1
Имя файла C:\Шахматы\2008.Frank Lowe - Black Beings\01. In Trane's Name.wav
Длина предзазора 0:00:02.00
Пиковый уровень 99.4 %
Скорость извлечения 2.9 X
Качество трека 100.0 %
CRC теста 922B3A05
CRC копии 922B3A05
Трек не обнаружен в базе AccurateRip
Копирование... OK
Трек 2
Имя файла C:\Шахматы\2008.Frank Lowe - Black Beings\02. Brother Joseph.wav
Пиковый уровень 99.4 %
Скорость извлечения 2.2 X
Качество трека 100.0 %
CRC теста B09BFDD4
CRC копии B09BFDD4
Трек не обнаружен в базе AccurateRip
Копирование... OK
Трек 3
Имя файла C:\Шахматы\2008.Frank Lowe - Black Beings\03. Thulani.wav
Пиковый уровень 99.5 %
Скорость извлечения 2.4 X
Качество трека 100.0 %
CRC теста 407814D0
CRC копии 407814D0
Трек не обнаружен в базе AccurateRip
Копирование... OK
Ни одного трека нет в базе AccurateRip
Ошибок не произошло
Конец отчёта
==== Контрольная сумма отчёта 652934F5F9CFD65BAB35A9ECDD67413FBE12E42C8D26577C3D8FAD665A8DDFF5 ====
 
Содержание индексной карты (.CUE)
REM GENRE Freejazz
REM DATE 2008
REM DISCID 1D0E2503
REM COMMENT "ExactAudioCopy v1.0b3"
PERFORMER "Frank Lowe"
TITLE "Black Beings"
FILE "01. In Trane's Name.wav" WAVE
TRACK 01 AUDIO
TITLE "In Trane's Name"
PERFORMER "Frank Lowe"
INDEX 01 00:00:00
FILE "02. Brother Joseph.wav" WAVE
TRACK 02 AUDIO
TITLE "Brother Joseph"
PERFORMER "Frank Lowe"
INDEX 01 00:00:00
FILE "03. Thulani.wav" WAVE
TRACK 03 AUDIO
TITLE "Thulani"
PERFORMER "Frank Lowe"
INDEX 01 00:00:00
Any questions -> support@pro-jazz.com. По всем вопросам пишите -> support@pro-jazz.com
22:44
137
Нет комментариев. Ваш будет первым!